<?xml version="1.0" standalone="no"?>
<!DOCTYPE svg PUBLIC "-//W3C//DTD SVG 1.1//EN" "http://www.w3.org/Graphics/SVG/1.1/DTD/svg11.dtd" >
<svg xmlns="http://www.w3.org/2000/svg" xmlns:xlink="http://www.w3.org/1999/xlink" version="1.1">
<metadata>
Created by FontForge 20161003 at Sat Jun  9 19:44:58 2018
 By www-data
Copyright 2010, 2012, 2014 Adobe Systems Incorporated (http://www.adobe.com/), with Reserved Font Name `Source'.
</metadata>
<defs>
<font id="SourceSansProLight" horiz-adv-x="0" >
  <font-face 
    font-family="SourceSansProLight"
    font-weight="300"
    font-stretch="normal"
    units-per-em="1000"
    panose-1="2 11 4 3 3 4 3 2 2 4"
    ascent="750"
    descent="-250"
    x-height="480"
    cap-height="659"
    bbox="-453 -284 2160 945"
    underline-thickness="50"
    underline-position="-150"
    unicode-range="U+0020-1F16B"
  />
<missing-glyph horiz-adv-x="632" 
d="M94 0v660h444v-660h-444zM158 39h312l-93 164l-59 105h-4l-61 -105zM314 372h4l53 92l86 155h-284l87 -155zM139 84l147 256l-147 260v-516zM491 84v516l-145 -260z" />
    <glyph glyph-name="f_f" unicode="ff" horiz-adv-x="530" 
d="M366 0v442h-223v-442h-44v442h-66v34l66 4v89q0 75 34 113.5t96 38.5q20 0 40.5 -4.5t40.5 -13.5l-12 -36q-18 9 -35 12.5t-34 3.5q-43 0 -64.5 -30.5t-21.5 -86.5v-86h223v107q0 72 30.5 108t87.5 36q35 0 70 -16l-12 -36q-14 8 -28.5 11t-28.5 3q-39 0 -57 -28t-18 -81
v-104h111v-38h-111v-442h-44z" />
    <glyph glyph-name="f_t" unicode="ft" horiz-adv-x="539" 
d="M99 0v442h-66v34l66 4v107q0 72 31 108t88 36q35 0 70 -16l-12 -36q-15 8 -29.5 11t-28.5 3q-38 0 -56.5 -28t-18.5 -81v-104h188l6 139h37v-139h140v-38h-140v-313q0 -23 3.5 -41.5t12.5 -32t25 -21t41 -7.5q14 0 30.5 4.5t29.5 10.5l12 -36q-21 -8 -42.5 -13t-36.5 -5
q-35 0 -57.5 10.5t-36.5 29.5t-19.5 46t-5.5 59v309h-187v-442h-44z" />
    <glyph glyph-name="f_f_t" unicode="fft" horiz-adv-x="805" 
d="M99 0v442h-66v34l66 4v89q0 75 34 113.5t96 38.5q20 0 40.5 -4.5t40.5 -13.5l-12 -36q-18 9 -35 12.5t-34 3.5q-43 0 -64.5 -30.5t-21.5 -86.5v-86h223v107q0 72 30.5 108t87.5 36q35 0 70 -16l-12 -36q-14 8 -28.5 11t-28.5 3q-39 0 -57 -28t-18 -81v-104h188l6 139h37
v-139h139v-38h-139v-313q0 -23 3.5 -41.5t12.5 -32t25 -21t41 -7.5q14 0 30.5 4.5t29.5 10.5l12 -36q-21 -8 -42.5 -13t-36.5 -5q-35 0 -57.5 10.5t-36.5 29.5t-19.5 46t-5.5 59v309h-187v-442h-44v442h-223v-442h-44z" />
    <glyph glyph-name=".notdef" horiz-adv-x="632" 
d="M94 0v660h444v-660h-444zM158 39h312l-93 164l-59 105h-4l-61 -105zM314 372h4l53 92l86 155h-284l87 -155zM139 84l147 256l-147 260v-516zM491 84v516l-145 -260z" />
    <glyph glyph-name=".null" 
 />
    <glyph glyph-name="nonmarkingreturn" horiz-adv-x="333" 
 />
    <glyph glyph-name="space" unicode=" " horiz-adv-x="200" 
 />
    <glyph glyph-name="exclam" unicode="!" horiz-adv-x="259" 
d="M113 179l-6 420v71h46l-1 -71l-6 -420h-33zM130 -12q-17 0 -30 12t-13 33q0 22 13 34t30 12t29.5 -12t12.5 -34q0 -21 -12.5 -33t-29.5 -12z" />
    <glyph glyph-name="quotedbl" unicode="&#x22;" horiz-adv-x="360" 
d="M92 477l-8 147l-1 69h51v-69l-9 -147h-33zM233 477l-8 147l-1 69h51v-69l-9 -147h-33z" />
    <glyph glyph-name="numbersign" unicode="#" horiz-adv-x="479" 
d="M93 0l26 214h-83v36h87l21 170h-88v36h92l25 194h35l-25 -194h149l26 194h34l-25 -194h82v-36h-85l-21 -170h86v-36h-91l-25 -214h-35l25 214h-149l-26 -214h-35zM158 250h150l21 170h-150z" />
    <glyph glyph-name="dollar" unicode="$" horiz-adv-x="479" 
d="M226 -110v99q-52 4 -95 26.5t-72 50.5l24 31q29 -26 69 -48t92 -22q63 0 96.5 34t33.5 89q0 49 -21.5 79.5t-53.5 52t-69.5 38.5t-69.5 39t-53.5 53.5t-21.5 82.5q0 31 10.5 58t29.5 47.5t45 33.5t56 16v99h39v-99q49 -3 80 -23t57 -47l-26 -28q-14 14 -27.5 25t-28.5 19
t-33 12t-41 4q-52 0 -84 -32.5t-32 -82.5q0 -44 21.5 -70.5t53.5 -46t69.5 -36t69.5 -40t53.5 -59t21.5 -92.5q0 -72 -43.5 -115t-110.5 -49v-99h-39z" />
    <glyph glyph-name="percent" unicode="%" horiz-adv-x="805" 
d="M181 257q-66 0 -103.5 53.5t-37.5 154.5q0 100 37.5 153t103.5 53t103.5 -53t37.5 -153q0 -101 -37.5 -154.5t-103.5 -53.5zM181 290q47 0 74.5 45.5t27.5 129.5t-27.5 128.5t-74.5 44.5t-74.5 -44.5t-27.5 -128.5t27.5 -129.5t74.5 -45.5zM198 -12l368 683h38l-367 -683
h-39zM624 -12q-66 0 -103.5 53.5t-37.5 154.5q0 100 37.5 153t103.5 53t103.5 -53t37.5 -153q0 -101 -37.5 -154.5t-103.5 -53.5zM624 21q47 0 74.5 45.5t27.5 129.5t-27.5 128.5t-74.5 44.5t-74.5 -44.5t-27.5 -128.5t27.5 -129.5t74.5 -45.5z" />
    <glyph glyph-name="ampersand" unicode="&#x26;" horiz-adv-x="575" 
d="M226 -12q-39 0 -74 12.5t-60.5 36t-40.5 56.5t-15 74q0 33 11.5 60t30 50.5t43 44t50.5 39.5q-20 42 -32 83.5t-12 79.5q0 32 10 59t28 46.5t43 30.5t55 11q54 0 82 -34t28 -86q0 -32 -13 -59t-34.5 -50.5t-49 -45t-55.5 -42.5q35 -63 83.5 -122t99.5 -104q35 45 61 99.5
t43 117.5h43q-20 -68 -48.5 -129.5t-68.5 -112.5q35 -28 67 -46.5t61 -29.5l-15 -39q-65 23 -141 83q-36 -37 -80 -60t-100 -23zM168 526q0 -33 10 -68.5t27 -71.5q25 18 48 36t41 38t28.5 41.5t10.5 47.5q0 16 -4 31.5t-12.5 27.5t-22 19.5t-33.5 7.5q-44 0 -68.5 -32
t-24.5 -77zM230 26q41 0 78 19.5t68 51.5q-53 48 -102.5 108t-84.5 124q-22 -17 -41.5 -35t-34.5 -37.5t-23.5 -41t-8.5 -45.5q0 -33 12 -59.5t32 -45t47.5 -29t57.5 -10.5z" />
    <glyph glyph-name="quotesingle" unicode="'" horiz-adv-x="219" 
d="M92 477l-8 147l-1 69h51v-69l-9 -147h-33z" />
    <glyph glyph-name="parenleft" unicode="(" horiz-adv-x="279" 
d="M220 -175q-62 100 -97 210.5t-35 242.5t35 242.5t97 210.5l27 -16q-60 -95 -90 -206.5t-30 -230.5t30 -230.5t90 -206.5z" />
    <glyph glyph-name="parenright" unicode=")" horiz-adv-x="279" 
d="M59 -175l-27 16q60 95 90 206.5t30 230.5t-30 230.5t-90 206.5l27 16q61 -100 96.5 -210.5t35.5 -242.5t-35.5 -242.5t-96.5 -210.5z" />
    <glyph glyph-name="asterisk" unicode="*" horiz-adv-x="395" 
d="M132 462l-27 20l55 88l-90 36l10 30l94 -26l7 102h32l7 -100l95 24l10 -30l-90 -36l54 -88l-27 -20l-64 83z" />
    <glyph glyph-name="plus" unicode="+" horiz-adv-x="479" 
d="M219 110v201h-185v38h185v201h41v-201h185v-38h-185v-201h-41z" />
    <glyph glyph-name="comma" unicode="," horiz-adv-x="219" 
d="M62 -155l-14 30q35 18 56 49t21 72q-4 -1 -12 -1q-17 0 -29.5 11t-12.5 31t13 31t30 11q23 0 37 -19t14 -52q0 -55 -29 -97t-74 -66z" />
    <glyph glyph-name="hyphen" unicode="-" horiz-adv-x="299" 
d="M40 230v39h220v-39h-220z" />
    <glyph glyph-name="period" unicode="." horiz-adv-x="219" 
d="M110 -12q-17 0 -30 12t-13 33q0 22 13 34t30 12t29.5 -12t12.5 -34q0 -21 -12.5 -33t-29.5 -12z" />
    <glyph glyph-name="slash" unicode="/" horiz-adv-x="357" 
d="M9 -160l305 870h38l-305 -870h-38z" />
    <glyph glyph-name="zero" unicode="0" horiz-adv-x="479" 
d="M239 -12q-92 0 -141.5 86.5t-49.5 247.5q0 160 49.5 244.5t141.5 84.5t141.5 -84.5t49.5 -244.5q0 -161 -49.5 -247.5t-141.5 -86.5zM239 26q67 0 106.5 74.5t39.5 221.5t-39.5 219t-106.5 72q-66 0 -106 -72t-40 -219t40 -221.5t106 -74.5z" />
    <glyph glyph-name="one" unicode="1" horiz-adv-x="479" 
d="M84 0v39h150v530h-114v30q39 7 69.5 17t53.5 23h36v-600h139v-39h-334z" />
    <glyph glyph-name="two" unicode="2" horiz-adv-x="479" 
d="M41 0v28q79 80 138 143.5t98.5 116t59 97t19.5 86.5q0 60 -33.5 101t-105.5 41q-44 0 -82 -24t-67 -60l-29 28q36 40 79.5 67t102.5 27q86 0 133 -49t47 -130q0 -48 -21 -95.5t-59 -100t-92.5 -112t-120.5 -129.5q26 2 53.5 3.5t53.5 1.5h218v-40h-392z" />
    <glyph glyph-name="three" unicode="3" horiz-adv-x="479" 
d="M232 -12q-38 0 -69 8t-55.5 21t-44 29t-34.5 32l26 31q14 -16 31 -30.5t38.5 -26t48 -18.5t59.5 -7q32 0 59.5 10t47.5 28.5t31 44.5t11 58q0 33 -12.5 60t-39 46.5t-69 30.5t-102.5 11v39q55 0 93.5 11t62 29.5t34 44t10.5 54.5q0 54 -35 86.5t-94 32.5q-45 0 -82 -20.5
t-65 -49.5l-26 30q33 32 75 55t98 23q37 0 69 -10.5t55.5 -30t37 -48t13.5 -65.5q0 -63 -34.5 -101.5t-87.5 -56.5v-4q30 -6 56 -20.5t46 -35.5t31.5 -48.5t11.5 -61.5q0 -42 -15 -75.5t-41.5 -57t-62 -36t-76.5 -12.5z" />
    <glyph glyph-name="four" unicode="4" horiz-adv-x="479" 
d="M310 0v191h-294v26l297 422h40v-410h95v-38h-95v-191h-43zM70 229h240v234q0 22 1 55t3 55h-4q-12 -20 -25 -39t-27 -41z" />
    <glyph glyph-name="five" unicode="5" horiz-adv-x="479" 
d="M227 -12q-38 0 -68.5 7.5t-55 20t-43.5 28t-34 30.5l25 31q14 -15 31 -29t38 -25t47 -17.5t59 -6.5q32 0 61 12.5t50.5 35t34.5 54t13 70.5q0 78 -42 121.5t-114 43.5q-37 0 -63.5 -11.5t-55.5 -31.5l-31 19l23 299h295v-39h-255l-20 -231q25 15 52 24.5t62 9.5
q40 0 76 -12t62 -36.5t41.5 -63t15.5 -90.5q0 -51 -17.5 -90.5t-46 -67t-65 -41.5t-75.5 -14z" />
    <glyph glyph-name="six" unicode="6" horiz-adv-x="479" 
d="M261 -12q-97 0 -153 78t-56 224q0 100 19.5 169t52 112t75 61.5t88.5 18.5q45 0 77.5 -17t57.5 -45l-27 -30q-21 26 -49 39.5t-59 13.5q-38 0 -72.5 -16.5t-60.5 -53.5t-41.5 -97.5t-15.5 -147.5q33 41 74.5 65t86.5 24q85 0 131.5 -50.5t46.5 -147.5q0 -44 -14 -80.5
t-38 -63t-55.5 -41.5t-67.5 -15zM262 26q28 0 51.5 12.5t40.5 34.5t27 51.5t10 63.5t-8 63.5t-24.5 51t-43 33.5t-62.5 12q-34 0 -75 -21.5t-80 -74.5q3 -51 14.5 -92.5t31.5 -71t49.5 -46t68.5 -16.5z" />
    <glyph glyph-name="seven" unicode="7" horiz-adv-x="479" 
d="M188 0q4 97 16.5 177.5t35.5 152t58 137t83 133.5h-337v39h393v-26q-57 -76 -94.5 -146t-60 -142.5t-32.5 -151.5t-14 -173h-48z" />
    <glyph glyph-name="eight" unicode="8" horiz-adv-x="479" 
d="M243 -12q-44 0 -81 13.5t-64 37t-42.5 55.5t-15.5 70q0 32 11.5 60t30 50.5t41 40t45.5 29.5v4q-18 12 -34.5 26.5t-29 33t-20.5 40t-8 47.5q0 34 13 63t35.5 49.5t53 32t65.5 11.5q41 0 73 -12.5t54.5 -35t34 -53t11.5 -66.5q0 -26 -9 -50.5t-22.5 -45.5t-29.5 -38
t-30 -28v-4q21 -13 41 -28t35.5 -34t25.5 -44t10 -57q0 -35 -14 -65.5t-39.5 -53t-61.5 -35.5t-79 -13zM290 335q41 33 62.5 69.5t21.5 78.5q0 27 -9 50.5t-25.5 41.5t-41 28.5t-55.5 10.5q-27 0 -49.5 -9t-39 -24.5t-25.5 -37.5t-9 -48q0 -34 14.5 -58.5t38.5 -43
t54.5 -32.5t62.5 -26zM243 25q34 0 61.5 10t47 28t30 42t10.5 51q0 37 -16.5 62.5t-44 45t-62.5 34t-72 29.5q-49 -29 -81 -68.5t-32 -92.5q0 -30 12 -55.5t33 -44.5t50 -30t64 -11z" />
    <glyph glyph-name="nine" unicode="9" horiz-adv-x="479" 
d="M226 291q35 0 77 23t78 74q-3 51 -14.5 92.5t-32 71t-50 45.5t-68.5 16q-27 0 -51 -12.5t-41 -34t-27 -51t-10 -63.5q0 -35 8 -64.5t25 -51t43 -33.5t63 -12zM191 -12q-45 0 -78 17t-57 45l27 30q21 -26 49 -39.5t60 -13.5q38 0 72.5 16.5t60.5 53.5t41.5 97.5
t15.5 147.5q-33 -40 -75 -64t-87 -24q-84 0 -130.5 50.5t-46.5 147.5q0 43 14 80t38 63t55.5 41t67.5 15q96 0 152 -77.5t56 -223.5q0 -101 -19.5 -170t-51.5 -111.5t-75 -61.5t-89 -19z" />
    <glyph glyph-name="colon" unicode=":" horiz-adv-x="219" 
d="M110 370q-17 0 -30 12t-13 33q0 22 13 34t30 12t29.5 -12t12.5 -34q0 -21 -12.5 -33t-29.5 -12zM110 -12q-17 0 -30 12t-13 33q0 22 13 34t30 12t29.5 -12t12.5 -34q0 -21 -12.5 -33t-29.5 -12z" />
    <glyph glyph-name="semicolon" unicode=";" horiz-adv-x="219" 
d="M110 370q-17 0 -30 12t-13 33q0 22 13 34t30 12t29.5 -12t12.5 -34q0 -21 -12.5 -33t-29.5 -12zM62 -155l-14 30q35 18 56 49t21 72q-4 -1 -12 -1q-17 0 -29.5 11t-12.5 31t13 31t30 11q23 0 37 -19t14 -52q0 -55 -29 -97t-74 -66z" />
    <glyph glyph-name="less" unicode="&#x3c;" horiz-adv-x="479" 
d="M445 146l-411 164v44l411 164v-43l-232 -90l-133 -51v-4l133 -51l232 -90v-43z" />
    <glyph glyph-name="equal" unicode="=" horiz-adv-x="479" 
d="M34 413v38h411v-38h-411zM34 210v38h411v-38h-411z" />
    <glyph glyph-name="greater" unicode="&#x3e;" horiz-adv-x="479" 
d="M34 146v43l232 90l133 51v4l-133 51l-232 90v43l411 -164v-44z" />
    <glyph glyph-name="question" unicode="?" horiz-adv-x="402" 
d="M163 179q-6 41 2.5 74.5t24.5 62t36 53.5t38 49.5t30 50.5t12 57q0 23 -6.5 44.5t-20.5 37.5t-35.5 25.5t-50.5 9.5q-37 0 -70.5 -16.5t-58.5 -47.5l-27 25q29 33 68.5 55.5t91.5 22.5q36 0 65 -11.5t49 -32t30.5 -48.5t10.5 -61q0 -34 -12.5 -62.5t-30.5 -54.5
t-38.5 -51.5t-37 -53t-26 -59t-4.5 -69.5h-40zM186 -12q-17 0 -29.5 12t-12.5 33q0 22 12.5 34t29.5 12t30 -12t13 -34q0 -21 -13 -33t-30 -12z" />
    <glyph glyph-name="at" unicode="@" horiz-adv-x="814" 
d="M388 -146q-72 0 -133.5 23.5t-106.5 68t-70.5 109t-25.5 147.5q0 98 32.5 177.5t87 136t126.5 87t151 30.5q72 0 130.5 -23t99 -64.5t62.5 -100t22 -129.5q0 -64 -17 -112.5t-44 -81.5t-59.5 -49.5t-63.5 -16.5q-40 0 -66.5 18.5t-30.5 57.5h-2q-26 -29 -56.5 -49.5
t-65.5 -20.5q-23 0 -44 8.5t-36.5 25.5t-24.5 42.5t-9 59.5q0 36 12.5 76t36.5 73t58.5 54.5t78.5 21.5q53 0 83 -48h2l9 40h34l-36 -189q-34 -135 60 -135q24 0 49.5 15t46 43.5t34 69.5t13.5 94q0 64 -19.5 117t-55.5 90t-87.5 57.5t-116.5 20.5q-69 0 -133 -28
t-113.5 -79.5t-79.5 -124t-30 -161.5q0 -73 22 -131.5t61.5 -99t95 -62.5t122.5 -22q50 0 91 13t77 35l16 -30q-86 -54 -187 -54zM364 98q50 0 108 67l31 173q-18 28 -34.5 38.5t-39.5 10.5q-34 0 -61 -17.5t-45.5 -44.5t-28.5 -60t-10 -64q0 -57 23 -80t57 -23z" />
    <glyph glyph-name="A" unicode="A" horiz-adv-x="526" 
d="M188 388l-42 -123h234l-42 123q-20 59 -38 113t-35 115h-4q-17 -61 -35 -115t-38 -113zM8 0l232 659h46l232 -659h-48l-77 226h-261l-78 -226h-46z" />
    <glyph glyph-name="B" unicode="B" horiz-adv-x="578" 
d="M97 0v659h178q100 0 159 -38.5t59 -121.5q0 -52 -26 -90.5t-76 -53.5v-4q64 -11 103 -50.5t39 -108.5q0 -48 -17.5 -84t-49.5 -60t-77 -36t-101 -12h-191zM143 369h114q101 0 145.5 33.5t44.5 91.5q0 70 -47 98.5t-138 28.5h-119v-252zM143 38h133q99 0 155.5 37
t56.5 116q0 72 -55 106t-157 34h-133v-293z" />
    <glyph glyph-name="C" unicode="C" horiz-adv-x="564" 
d="M331 -12q-61 0 -112 24t-87.5 68.5t-56.5 108t-20 142.5q0 78 20.5 141t57.5 107.5t88.5 68t114.5 23.5q58 0 102 -24t70 -55l-27 -31q-27 31 -63 49.5t-81 18.5q-54 0 -97.5 -21t-74 -59.5t-46.5 -93.5t-16 -124t16 -124.5t46 -94.5t72.5 -60.5t95.5 -21.5q51 0 91 20.5
t76 60.5l27 -29q-38 -44 -85 -69t-111 -25z" />
    <glyph glyph-name="D" unicode="D" horiz-adv-x="604" 
d="M97 0v659h153q76 0 132.5 -23t93.5 -66t55 -103t18 -135t-18 -136.5t-55 -105t-93 -67t-132 -23.5h-154zM143 39h102q67 0 115.5 21.5t79.5 60.5t46 92.5t15 118.5q0 64 -15 117t-46 91t-79.5 59t-115.5 21h-102v-581z" />
    <glyph glyph-name="E" unicode="E" horiz-adv-x="515" 
d="M97 0v659h361v-40h-315v-249h264v-40h-264v-290h325v-40h-371z" />
    <glyph glyph-name="F" unicode="F" horiz-adv-x="477" 
d="M97 0v659h359v-40h-313v-262h265v-40h-265v-317h-46z" />
    <glyph glyph-name="G" unicode="G" horiz-adv-x="605" 
d="M338 -12q-64 0 -116 24t-89 68.5t-57.5 108t-20.5 142.5q0 78 21 141t59 107.5t92 68t119 23.5q33 0 60.5 -7t49.5 -18.5t39.5 -25.5t30.5 -28l-27 -31q-26 28 -62 48t-90 20q-57 0 -102 -21t-76.5 -59.5t-48.5 -93.5t-17 -124t16 -124.5t46.5 -94.5t75 -60.5
t100.5 -21.5q45 0 84.5 13t63.5 37v205h-158v39h202v-261q-31 -33 -80.5 -54t-114.5 -21z" />
    <glyph glyph-name="H" unicode="H" horiz-adv-x="639" 
d="M97 0v659h46v-289h353v289h46v-659h-46v330h-353v-330h-46z" />
    <glyph glyph-name="I" unicode="I" horiz-adv-x="240" 
d="M97 0v659h46v-659h-46z" />
    <glyph glyph-name="J" unicode="J" horiz-adv-x="462" 
d="M203 -12q-55 0 -96 25t-66 72l35 23q24 -42 54.5 -60t72.5 -18q60 0 89 36.5t29 117.5v475h46v-480q0 -40 -9 -74.5t-28.5 -60.5t-50.5 -41t-76 -15z" />
    <glyph glyph-name="K" unicode="K" horiz-adv-x="558" 
d="M97 0v659h46v-366h2l319 366h55l-210 -244l239 -415h-53l-218 380l-134 -153v-227h-46z" />
    <glyph glyph-name="L" unicode="L" horiz-adv-x="467" 
d="M97 0v659h46v-619h304v-40h-350z" />
    <glyph glyph-name="M" unicode="M" horiz-adv-x="706" 
d="M97 0v659h65l138 -387q13 -36 26 -72.5t26 -73.5h4q13 37 25 73.5t25 72.5l137 387h66v-659h-45v433q0 41 2 88.5t4 89.5h-4l-51 -147l-142 -392h-40l-143 392l-52 147h-4q2 -42 4 -89.5t2 -88.5v-433h-43z" />
    <glyph glyph-name="N" unicode="N" horiz-adv-x="636" 
d="M97 0v659h48l278 -465l74 -131h4l-4 96t-2 96v404h44v-659h-48l-278 465l-74 131h-4q2 -48 4 -93.5t2 -93.5v-409h-44z" />
    <glyph glyph-name="O" unicode="O" horiz-adv-x="652" 
d="M326 -12q-59 0 -109 24.5t-86 69.5t-56 108.5t-20 141.5t20 140.5t56 107t86 68t109 23.5q60 0 110 -23.5t86 -68t56 -107t20 -140.5t-20 -141.5t-56 -108.5t-86 -69.5t-110 -24.5zM326 30q50 0 91 21.5t70.5 61t45.5 95t16 124.5q0 68 -16 123t-45.5 93.5t-70.5 59.5
t-91 21t-91.5 -21t-70.5 -59.5t-45 -93.5t-16 -123q0 -69 16 -124.5t45 -95t70.5 -61t91.5 -21.5z" />
    <glyph glyph-name="P" unicode="P" horiz-adv-x="549" 
d="M97 0v659h166q56 0 100.5 -9.5t75 -31.5t47 -57t16.5 -86q0 -97 -62 -144.5t-173 -47.5h-124v-283h-46zM143 322h113q101 0 150 36t49 117q0 83 -50.5 114t-152.5 31h-109v-298z" />
    <glyph glyph-name="Q" unicode="Q" horiz-adv-x="652" 
d="M326 27q50 0 91 22t70.5 61.5t45.5 96t16 125.5q0 68 -16 123t-45.5 93.5t-70.5 59.5t-91 21t-91.5 -21t-70.5 -59.5t-45 -93.5t-16 -123q0 -69 16 -125.5t45 -96t70.5 -61.5t91.5 -22zM519 -156q-42 0 -76.5 11t-62 30.5t-48 46t-32.5 57.5q-54 5 -99 31.5t-77.5 71
t-50.5 105.5t-18 135q0 78 20 140.5t56 107t86 68t109 23.5q60 0 110 -23.5t86 -68t56 -107t20 -140.5q0 -74 -18 -135t-50.5 -105.5t-78 -71t-100.5 -31.5q23 -50 66.5 -76t105.5 -26q23 0 38.5 2.5t28.5 5.5l10 -39q-13 -4 -34.5 -8t-46.5 -4z" />
    <glyph glyph-name="R" unicode="R" horiz-adv-x="544" 
d="M97 0v659h189q49 0 89 -9.5t68 -30.5t43.5 -54t15.5 -80q0 -79 -45.5 -124t-123.5 -55l182 -306h-53l-179 303h-140v-303h-46zM143 341h131q88 0 134.5 35.5t46.5 108.5q0 74 -47 104.5t-134 30.5h-131v-279z" />
    <glyph glyph-name="S" unicode="S" horiz-adv-x="521" 
d="M269 -12q-72 0 -128 27.5t-95 71.5l30 32q36 -41 86 -65t107 -24q76 0 120 36.5t44 95.5q0 31 -9.5 52.5t-25.5 37t-37.5 26.5t-45.5 22l-100 45q-21 9 -45 22t-43.5 32.5t-32.5 46t-13 63.5q0 36 14.5 65.5t40 51t61 33.5t76.5 12q60 0 106.5 -23.5t76.5 -55.5l-26 -30
q-29 30 -68 48.5t-89 18.5q-66 0 -106 -32t-40 -86q0 -29 11 -49t28 -34.5t37 -25t38 -18.5l100 -44q28 -12 53 -27t44 -35t30.5 -47.5t11.5 -65.5t-15 -70.5t-42.5 -56t-66.5 -37t-87 -13.5z" />
    <glyph glyph-name="T" unicode="T" horiz-adv-x="524" 
d="M239 0v619h-210v40h466v-40h-210v-619h-46z" />
    <glyph glyph-name="U" unicode="U" horiz-adv-x="634" 
d="M316 -12q-42 0 -82 12.5t-71 43t-49.5 81.5t-18.5 128v406h46v-401q0 -66 14.5 -109.5t38.5 -70t55.5 -37.5t66.5 -11q36 0 68.5 11t57 37.5t39.5 70t15 109.5v401h43v-406q0 -77 -19 -128t-50 -81.5t-71 -43t-83 -12.5z" />
    <glyph glyph-name="V" unicode="V" horiz-adv-x="491" 
d="M222 0l-218 659h49l122 -385q19 -60 34.5 -110.5t35.5 -110.5h4q10 30 18.5 57t16.5 53.5t16.5 53.5t17.5 57l122 385h47l-216 -659h-49z" />
    <glyph glyph-name="W" unicode="W" horiz-adv-x="770" 
d="M178 0l-150 659h48l83 -388q11 -54 22.5 -107.5t22.5 -107.5h4q12 54 24.5 107.5t26.5 107.5l103 388h47l103 -388q14 -54 26.5 -107.5t26.5 -107.5h4q11 54 21.5 107.5t21.5 107.5l83 388h45l-147 -659h-51l-120 452q-9 39 -18 74.5t-17 74.5h-4q-8 -39 -18 -74.5
t-19 -74.5l-118 -452h-50z" />
    <glyph glyph-name="X" unicode="X" horiz-adv-x="482" 
d="M17 0l198 341l-184 318h50l108 -194q14 -23 25.5 -43t28.5 -47h4q14 27 24.5 47t24.5 43l108 194h47l-184 -320l198 -339h-50l-115 202q-14 25 -28.5 50t-32.5 55h-4q-16 -30 -29 -55t-27 -50l-115 -202h-47z" />
    <glyph glyph-name="Y" unicode="Y" horiz-adv-x="447" 
d="M200 0v267l-197 392h49l100 -206q17 -36 33.5 -71t36.5 -71h4q19 36 37 71t34 71l100 206h47l-198 -392v-267h-46z" />
    <glyph glyph-name="Z" unicode="Z" horiz-adv-x="538" 
d="M50 0v27l379 592h-346v40h404v-27l-380 -592h383v-40h-440z" />
    <glyph glyph-name="bracketleft" unicode="[" horiz-adv-x="279" 
d="M98 -152v860h160v-29h-125v-802h125v-29h-160z" />
    <glyph glyph-name="backslash" unicode="\" horiz-adv-x="357" 
d="M311 -160l-306 870h38l306 -870h-38z" />
    <glyph glyph-name="bracketright" unicode="]" horiz-adv-x="279" 
d="M21 -152v29h125v802h-125v29h160v-860h-160z" />
    <glyph glyph-name="asciicircum" unicode="^" horiz-adv-x="479" 
d="M66 290l150 380h46l151 -380h-43l-77 203l-52 133h-4l-51 -133l-77 -203h-43z" />
    <glyph glyph-name="underscore" unicode="_" horiz-adv-x="500" 
d="M12 -117v38h476v-38h-476z" />
    <glyph glyph-name="grave" unicode="`" horiz-adv-x="535" 
d="M296 574l-144 151l34 29l134 -157z" />
    <glyph glyph-name="a" unicode="a" horiz-adv-x="491" 
d="M197 -12q-29 0 -54 8t-44 24t-30 41t-11 59q0 80 74.5 121.5t235.5 59.5q0 27 -4 54.5t-17 49t-35 35t-58 13.5q-48 0 -88 -19t-65 -37l-20 33q13 9 31.5 20t41.5 20t50 15.5t56 6.5q42 0 71 -14.5t47 -39.5t26 -58.5t8 -72.5v-307h-38l-4 62h-3q-37 -29 -79.5 -51.5
t-90.5 -22.5zM205 26q42 0 80 20t83 58v163q-74 -9 -125 -22t-82 -31t-44.5 -41t-13.5 -51q0 -26 8 -44t22 -29.5t32.5 -17t39.5 -5.5z" />
    <glyph glyph-name="b" unicode="b" horiz-adv-x="542" 
d="M280 -12q-35 0 -72.5 16.5t-71.5 44.5h-2l-5 -49h-37v719h44v-208l-2 -94q37 31 79 53t87 22q96 0 144 -66.5t48 -178.5q0 -61 -17 -109t-46.5 -81.5t-68 -51t-80.5 -17.5zM278 27q36 0 67 16t53 45t34.5 69.5t12.5 89.5q0 44 -8.5 82t-26.5 65.5t-47 43t-70 15.5
q-36 0 -75 -20.5t-82 -58.5v-285q40 -34 77 -48t65 -14z" />
    <glyph glyph-name="c" unicode="c" horiz-adv-x="449" 
d="M270 -12q-47 0 -86.5 17t-69 49t-46 78.5t-16.5 106.5t18 107.5t48 79.5t69.5 49t83.5 17q50 0 83 -18t58 -41l-26 -31q-23 22 -51 36.5t-63 14.5q-37 0 -68.5 -15.5t-55 -44t-37 -67.5t-13.5 -87q0 -47 12.5 -86t35 -67t55 -43.5t71.5 -15.5q38 0 70.5 16t57.5 39
l23 -31q-31 -27 -69 -45t-84 -18z" />
    <glyph glyph-name="d" unicode="d" horiz-adv-x="544" 
d="M251 -12q-91 0 -145 64.5t-54 186.5q0 58 17 105t46.5 80t68 50.5t81.5 17.5q44 0 76.5 -15.5t68.5 -43.5l-2 88v198h44v-719h-38l-4 62h-3q-29 -29 -68.5 -51.5t-87.5 -22.5zM257 27q40 0 76.5 20.5t74.5 58.5v285q-38 34 -71.5 48t-68.5 14q-36 0 -67 -16.5t-53.5 -45
t-35.5 -68t-13 -84.5q0 -48 10.5 -87t30.5 -66.5t49.5 -43t67.5 -15.5z" />
    <glyph glyph-name="e" unicode="e" horiz-adv-x="483" 
d="M274 -12q-46 0 -86.5 17t-70.5 49.5t-47.5 79t-17.5 105.5t17.5 106t47 79.5t67 50t77.5 17.5q86 0 135 -58t49 -164v-18t-2 -18h-346q1 -45 14 -83.5t36.5 -66t56.5 -43t74 -15.5q39 0 70.5 11.5t58.5 31.5l18 -34q-29 -17 -63.5 -32t-87.5 -15zM97 270h306
q0 93 -38 138.5t-103 45.5q-31 0 -59 -12.5t-50.5 -36.5t-37 -58t-18.5 -77z" />
    <glyph glyph-name="f" unicode="f" horiz-adv-x="263" 
d="M99 0v442h-66v34l66 4v107q0 72 31 108t88 36q35 0 70 -16l-12 -36q-15 8 -29.5 11t-28.5 3q-38 0 -56.5 -28t-18.5 -81v-104h111v-38h-111v-442h-44z" />
    <glyph glyph-name="g" unicode="g" horiz-adv-x="487" 
d="M249 -231q-91 0 -144 36t-53 97q0 32 19 62t52 54v4q-18 11 -30 30t-12 47q0 32 18 54.5t34 33.5v4q-23 20 -41.5 54t-18.5 78q0 37 13 68t36 53.5t54 35t66 12.5q20 0 36 -3.5t27 -8.5h163v-37h-112q23 -20 38 -51.5t15 -69.5q0 -37 -13 -68t-35.5 -53.5t-53 -35
t-65.5 -12.5q-20 0 -41.5 5t-38.5 15q-16 -13 -27.5 -29t-11.5 -40q0 -26 19 -44.5t73 -18.5h103q81 0 119.5 -26.5t38.5 -83.5q0 -31 -16 -60.5t-45.5 -52t-71.5 -36t-94 -13.5zM242 188q25 0 47.5 9.5t39.5 27.5t27 43t10 55t-10 55t-26.5 42t-39.5 26.5t-48 9.5
q-26 0 -48.5 -9.5t-39.5 -26.5t-27 -41.5t-10 -55.5q0 -30 10 -55t27.5 -43t40 -27.5t47.5 -9.5zM254 -195q40 0 73 10.5t56 27.5t35.5 38.5t12.5 44.5q0 40 -28.5 56.5t-82.5 16.5h-103q-8 0 -24.5 1.5t-35.5 6.5q-33 -23 -48 -49t-15 -52q0 -45 41.5 -73t118.5 -28z" />
    <glyph glyph-name="h" unicode="h" horiz-adv-x="528" 
d="M92 0v719h44v-314q38 38 77 62.5t89 24.5q75 0 110 -45t35 -139v-308h-44v302q0 77 -25.5 113.5t-84.5 36.5q-43 0 -78 -22.5t-79 -67.5v-362h-44z" />
    <glyph glyph-name="i" unicode="i" horiz-adv-x="229" 
d="M92 0v480h44v-480h-44zM115 596q-17 0 -28.5 11t-11.5 28q0 19 11.5 29.5t28.5 10.5t28.5 -10.5t11.5 -29.5q0 -17 -11.5 -28t-28.5 -11z" />
    <glyph glyph-name="j" unicode="j" horiz-adv-x="229" 
d="M29 -229q-17 0 -34 3.5t-28 8.5l11 36q9 -3 22.5 -6.5t27.5 -3.5q40 0 52 29.5t12 75.5v566h45v-569q0 -71 -26 -105.5t-82 -34.5zM115 596q-16 0 -28 11t-12 28q0 19 12 29.5t28 10.5q17 0 29 -10.5t12 -29.5q0 -17 -12 -28t-29 -11z" />
    <glyph glyph-name="k" unicode="k" horiz-adv-x="464" 
d="M92 0v719h44v-530h2l237 291h51l-156 -190l182 -290h-49l-159 257l-108 -126v-131h-44z" />
    <glyph glyph-name="l" unicode="l" horiz-adv-x="237" 
d="M151 -12q-59 0 -59 76v655h44v-661q0 -16 6 -23.5t15 -7.5h6.5t11.5 2l8 -36q-7 -2 -14 -3.5t-18 -1.5z" />
    <glyph glyph-name="m" unicode="m" horiz-adv-x="812" 
d="M92 0v480h38l4 -74h3q32 37 71.5 61.5t79.5 24.5q58 0 89 -26.5t44 -71.5q42 45 81.5 71.5t81.5 26.5q144 0 144 -184v-308h-45v302q0 77 -26 113.5t-81 36.5q-65 0 -144 -90v-362h-44v302q0 77 -26 113.5t-82 36.5q-65 0 -144 -90v-362h-44z" />
    <glyph glyph-name="n" unicode="n" horiz-adv-x="532" 
d="M92 0v480h38l4 -74h3q37 37 76 61.5t89 24.5q75 0 110 -45t35 -139v-308h-44v302q0 77 -25.5 113.5t-84.5 36.5q-43 0 -78 -22.5t-79 -67.5v-362h-44z" />
    <glyph glyph-name="o" unicode="o" horiz-adv-x="535" 
d="M267 -12q-43 0 -82 17t-68.5 49t-47 78.5t-17.5 106.5t17.5 107.5t47 79.5t68.5 49t82 17t82.5 -17t69 -49t47 -79.5t17.5 -107.5t-17.5 -106.5t-47 -78.5t-69 -49t-82.5 -17zM267 27q36 0 67.5 15.5t54 43.5t35.5 67t13 86q0 48 -13 87t-35.5 67.5t-54 44t-67.5 15.5
t-67 -15.5t-53.5 -44t-35.5 -67.5t-13 -87q0 -47 13 -86t35.5 -67t53.5 -43.5t67 -15.5z" />
    <glyph glyph-name="p" unicode="p" horiz-adv-x="544" 
d="M92 -217v697h38l4 -60h3q35 28 76.5 50t86.5 22q96 0 144 -66.5t48 -178.5q0 -61 -17 -109t-46.5 -81.5t-68 -51t-80.5 -17.5q-34 0 -70 15.5t-74 43.5v-264h-44zM278 27q36 0 67 16t53 45t34.5 69.5t12.5 89.5q0 44 -8.5 82t-26.5 65.5t-47 43t-70 15.5
q-36 0 -74.5 -20.5t-82.5 -58.5v-285q42 -34 78 -48t64 -14z" />
    <glyph glyph-name="q" unicode="q" horiz-adv-x="544" 
d="M408 -217v185l2 95q-32 -31 -71.5 -53t-87.5 -22q-91 0 -145 64.5t-54 186.5q0 58 17 105t46.5 80t68 50.5t81.5 17.5q44 0 76.5 -15t66.5 -41h2l5 44h37v-697h-44zM257 27q40 0 76.5 20.5t74.5 58.5v285q-38 34 -71.5 48t-68.5 14q-36 0 -67 -16.5t-53.5 -45t-35.5 -68
t-13 -84.5q0 -48 10.5 -87t30.5 -66.5t49.5 -43t67.5 -15.5z" />
    <glyph glyph-name="r" unicode="r" horiz-adv-x="317" 
d="M92 0v480h38l4 -89h3q24 45 58.5 73t77.5 28q14 0 25 -2t23 -8l-10 -40q-12 5 -21 6.5t-23 1.5q-32 0 -67.5 -27.5t-63.5 -95.5v-327h-44z" />
    <glyph glyph-name="s" unicode="s" horiz-adv-x="405" 
d="M208 -12q-54 0 -99 19.5t-77 46.5l26 33q31 -26 66 -43.5t87 -17.5q57 0 85.5 28.5t28.5 66.5q0 22 -10.5 39t-27.5 29t-37.5 21t-41.5 17q-27 10 -54.5 21t-49.5 26.5t-35.5 37t-13.5 52.5q0 26 10 49.5t30 41t48.5 27.5t66.5 10t74.5 -14t62.5 -36l-24 -31
q-24 18 -51 30.5t-64 12.5q-28 0 -48 -7.5t-33.5 -19.5t-20 -28t-6.5 -32q0 -21 9.5 -35.5t25.5 -25.5t36.5 -19.5t41.5 -16.5l56 -22t50.5 -27t36.5 -39.5t14 -58.5q0 -27 -10.5 -51.5t-31.5 -43t-51 -29.5t-69 -11z" />
    <glyph glyph-name="t" unicode="t" horiz-adv-x="312" 
d="M223 -12q-35 0 -58 10.5t-37 29.5t-19.5 46t-5.5 59v309h-75v34l76 4l6 139h38v-139h139v-38h-139v-313q0 -23 3.5 -41.5t12.5 -32t24.5 -21t40.5 -7.5q14 0 30.5 4.5t29.5 10.5l12 -36q-21 -8 -42 -13t-36 -5z" />
    <glyph glyph-name="u" unicode="u" horiz-adv-x="529" 
d="M230 -12q-75 0 -110 45t-35 139v308h44v-302q0 -77 25.5 -113.5t83.5 -36.5q43 0 78 23.5t77 74.5v354h44v-480h-37l-5 80h-2q-35 -42 -74 -67t-89 -25z" />
    <glyph glyph-name="v" unicode="v" horiz-adv-x="434" 
d="M192 0l-180 480h48l108 -301q11 -35 24 -70t24 -68h4q12 33 24.5 68t24.5 70l108 301h45l-178 -480h-52z" />
    <glyph glyph-name="w" unicode="w" horiz-adv-x="685" 
d="M166 0l-142 480h48l86 -311q9 -33 17 -64.5t16 -63.5h4q8 32 17 63.5t18 64.5l87 311h53l87 -311q9 -33 18 -64.5t18 -63.5h4q8 32 17 63.5t17 64.5l85 311h45l-138 -480h-58l-84 298q-11 35 -18.5 68.5t-18.5 68.5h-4q-8 -35 -17.5 -69.5t-20.5 -69.5l-83 -296h-53z" />
    <glyph glyph-name="x" unicode="x" horiz-adv-x="407" 
d="M14 0l163 251l-150 229h49l78 -122q12 -20 24.5 -39.5t26.5 -39.5h4q13 20 24.5 39.5t24.5 39.5l75 122h46l-149 -233l163 -247h-49l-85 131q-14 23 -28 45t-29 43h-4q-14 -21 -27.5 -43t-27.5 -45l-82 -131h-47z" />
    <glyph glyph-name="y" unicode="y" horiz-adv-x="436" 
d="M73 -219q-27 0 -49 10l10 39q8 -3 18 -5.5t21 -2.5q45 0 75 36t48 91l13 42l-197 489h48l116 -302q11 -30 24.5 -66t27.5 -68h4q11 32 22.5 68t21.5 66l103 302h45l-190 -540q-10 -30 -24.5 -59t-34 -51t-45 -35.5t-57.5 -13.5z" />
    <glyph glyph-name="z" unicode="z" horiz-adv-x="404" 
d="M27 0v24l284 418h-253v38h310v-23l-283 -418h293v-39h-351z" />
    <glyph glyph-name="braceleft" unicode="{" horiz-adv-x="279" 
d="M224 -152q-28 0 -48.5 6t-34.5 20.5t-21 39t-7 62.5q0 56 4 104.5t4 100.5q0 15 -3.5 30t-13 26t-26.5 18t-43 7v32q26 0 43 7t26.5 18t13 25t3.5 29q0 54 -4 102.5t-4 104.5q0 38 7 62.5t21 39t34.5 20.5t48.5 6h34v-29h-31q-46 0 -61.5 -25t-15.5 -78q0 -49 3 -93.5
t3 -98.5q0 -45 -10.5 -70t-40.5 -34v-4q30 -9 40.5 -35t10.5 -69q0 -54 -3 -98.5t-3 -93.5q0 -53 15.5 -78t61.5 -25h31v-29h-34z" />
    <glyph glyph-name="bar" unicode="|" horiz-adv-x="226" 
d="M95 -250v1000h36v-1000h-36z" />
    <glyph glyph-name="braceright" unicode="}" horiz-adv-x="279" 
d="M21 -152v29h31q46 0 61.5 25t15.5 78q0 49 -3 93.5t-3 98.5q0 43 11 69t40 35v4q-29 9 -40 34t-11 70q0 54 3 98.5t3 93.5q0 53 -15.5 78t-61.5 25h-31v29h34q28 0 48.5 -6t34.5 -20.5t21 -39t7 -62.5q0 -56 -4 -104.5t-4 -102.5q0 -15 3.5 -29t13 -25t26.5 -18t43 -7
v-32q-26 0 -43 -7t-26.5 -18t-13 -26t-3.5 -30q0 -52 4 -100.5t4 -104.5q0 -38 -7 -62.5t-21 -39t-34.5 -20.5t-48.5 -6h-34z" />
    <glyph glyph-name="asciitilde" unicode="~" horiz-adv-x="479" 
d="M329 266q-29 0 -52.5 14t-45 31t-41.5 31t-42 14q-23 0 -42 -14t-37 -49l-29 18q22 42 51.5 62.5t58.5 20.5t52.5 -14t45 -31t41.5 -31t42 -14q23 0 42 14t37 49l28 -20q-21 -41 -50.5 -61t-58.5 -20z" />
    <glyph glyph-name="uni00A0" unicode="&#xa0;" horiz-adv-x="199" 
 />
    <glyph glyph-name="exclamdown" unicode="&#xa1;" horiz-adv-x="259" 
d="M107 -190v71l6 420h33l6 -420l1 -71h-46zM130 401q-17 0 -30 12t-13 35q0 20 13 32t30 12t29.5 -12t12.5 -32q0 -23 -12.5 -35t-29.5 -12z" />
    <glyph glyph-name="cent" unicode="&#xa2;" horiz-adv-x="479" 
d="M107 311q0 -78 39.5 -129t108.5 -61v381q-32 -5 -59.5 -21t-47 -40.5t-30.5 -57.5t-11 -72zM255 -28v109q-42 4 -77.5 21t-61 46.5t-40 70.5t-14.5 92q0 52 15 92.5t41.5 70t61.5 46.5t75 21v111h34v-109q48 -2 80 -19.5t55 -40.5l-24 -28q-23 21 -51 35t-60 14v-385
q37 2 68 17t55 37l23 -29q-29 -27 -65.5 -44.5t-80.5 -19.5v-108h-34z" />
    <glyph glyph-name="sterling" unicode="&#xa3;" horiz-adv-x="479" 
d="M57 0v27q56 32 81 84t25 110q0 19 -2.5 37t-6.5 35h-100v33l66 3h24q-11 38 -21.5 75.5t-10.5 76.5q0 79 45.5 124.5t124.5 45.5q52 0 86.5 -21t57.5 -50l-29 -27q-21 25 -48 42t-67 17q-31 0 -54.5 -10t-39 -28t-23.5 -42t-8 -51q0 -40 10.5 -76.5t21.5 -75.5h165v-36
h-157q4 -17 6 -34.5t2 -37.5q0 -62 -19 -103t-53 -74v-4h295v-40h-371z" />
    <glyph glyph-name="currency" unicode="&#xa4;" horiz-adv-x="479" 
d="M57 114l-26 28l65 67q-18 24 -28 54t-10 65q0 37 10 67.5t28 54.5l-65 68l26 28l66 -69q23 21 53.5 32.5t62.5 11.5t62.5 -11.5t53.5 -32.5l67 69l26 -28l-66 -68q18 -24 28 -54.5t10 -67.5q0 -35 -10 -65t-27 -54l65 -67l-26 -28l-67 68q-23 -22 -53.5 -33.5
t-62.5 -11.5q-66 0 -116 45zM239 174q28 0 53 11.5t43.5 31.5t29.5 48.5t11 62.5t-11 63t-29.5 49.5t-43.5 32t-53 11.5t-53 -11.5t-43.5 -32t-29.5 -49.5t-11 -63t11 -62.5t29.5 -48.5t43.5 -31.5t53 -11.5z" />
    <glyph glyph-name="yen" unicode="&#xa5;" horiz-adv-x="479" 
d="M216 0v165h-166v34h166v71h-166v33h152l-172 336h48l94 -193q16 -33 32 -66.5t34 -70.5h4q19 37 34.5 70.5t32.5 66.5l94 193h46l-174 -336h154v-33h-168v-71h168v-34h-168v-165h-45z" />
    <glyph glyph-name="brokenbar" unicode="&#xa6;" horiz-adv-x="226" 
d="M95 279v471h36v-471h-36zM95 -250v470h36v-470h-36z" />
    <glyph glyph-name="section" unicode="&#xa7;" horiz-adv-x="479" 
d="M92 355q0 -39 22.5 -63.5t56 -42t71.5 -32.5t70 -36q36 17 55.5 38t19.5 62q0 40 -22.5 65.5t-56 43.5t-71.5 33.5t-69 35.5q-34 -20 -55 -43t-21 -61zM233 -52q-52 0 -92 17.5t-69 45.5l30 28q26 -24 55.5 -39t75.5 -15t73 25t27 60q0 34 -21 55.5t-52.5 37.5t-68 30.5
t-68 34.5t-52.5 49t-21 75q0 48 25.5 79.5t63.5 51.5q-15 15 -24 35t-9 46q0 21 8 42t25 37.5t42 27t60 10.5q42 0 77 -15t63 -38l-24 -31q-24 20 -50.5 33t-64.5 13q-25 0 -43 -6.5t-29 -17t-16.5 -24.5t-5.5 -28q0 -33 21 -53.5t52 -37t67.5 -31t67.5 -35t52 -50.5t21 -76
q0 -50 -24.5 -78.5t-62.5 -49.5q16 -16 25 -36.5t9 -47.5t-11.5 -50t-31 -39.5t-45.5 -25.5t-55 -9z" />
    <glyph glyph-name="dieresis" unicode="&#xa8;" horiz-adv-x="535" 
d="M178 598q-16 0 -26.5 10.5t-10.5 26.5t10.5 26.5t26.5 10.5t26.5 -10.5t10.5 -26.5t-10.5 -26.5t-26.5 -10.5zM356 598q-16 0 -26.5 10.5t-10.5 26.5t10.5 26.5t26.5 10.5t26.5 -10.5t10.5 -26.5t-10.5 -26.5t-26.5 -10.5z" />
    <glyph glyph-name="copyright" unicode="&#xa9;" horiz-adv-x="741" 
d="M371 -12q-65 0 -123 24t-102 67.5t-69.5 105t-25.5 137.5q0 75 25.5 136t69.5 104t102 66.5t123 23.5q64 0 122 -23.5t102 -66.5t69.5 -104t25.5 -136q0 -76 -25.5 -137.5t-69.5 -105t-102 -67.5t-122 -24zM371 19q57 0 108.5 22t90.5 61.5t62 95.5t23 124
q0 67 -23 122.5t-62 95t-90.5 61t-108.5 21.5q-58 0 -109.5 -21.5t-90.5 -61t-62 -95t-23 -122.5q0 -68 23 -124t62 -95.5t90.5 -61.5t109.5 -22zM376 124q-36 0 -67.5 13.5t-55.5 39t-38 62t-14 83.5q0 43 15 78t39.5 59t57 37t68.5 13q40 0 68 -15.5t52 -39.5l-23 -26
q-23 22 -45.5 33t-52.5 11q-60 0 -98 -41t-38 -109q0 -75 36.5 -118t97.5 -43q36 0 64 14.5t51 35.5l20 -28q-27 -24 -58 -41.5t-79 -17.5z" />
    <glyph glyph-name="ordfeminine" unicode="&#xaa;" horiz-adv-x="337" 
d="M139 398q-43 0 -70 23.5t-27 67.5q0 53 49 80t157 38q0 19 -3.5 36t-11.5 29.5t-21 19.5t-34 7q-30 0 -60 -12.5t-47 -24.5l-15 27q20 13 53.5 27.5t72.5 14.5q58 0 80.5 -34t22.5 -91v-200h-30l-6 39h-4q-21 -18 -47.5 -32.5t-58.5 -14.5zM148 430q48 0 100 49v102
q-93 -11 -130 -33t-37 -56q0 -32 18 -47t49 -15z" />
    <glyph glyph-name="guillemotleft" unicode="&#xab;" horiz-adv-x="400" 
d="M180 72l-137 161v38l137 161l25 -21l-123 -159l123 -161zM321 72l-137 161v38l137 161l25 -21l-123 -159l123 -161z" />
    <glyph glyph-name="logicalnot" unicode="&#xac;" horiz-adv-x="479" 
d="M404 110v201h-370v38h411v-239h-41z" />
    <glyph glyph-name="uni00AD" unicode="&#xad;" horiz-adv-x="299" 
d="M40 230v39h220v-39h-220z" />
    <glyph glyph-name="registered" unicode="&#xae;" horiz-adv-x="401" 
d="M200 324q-37 0 -70 14t-58 39t-39.5 60.5t-14.5 79.5t14.5 80t39.5 61.5t58 39.5t70 14t70.5 -14t58 -39.5t39 -61.5t14.5 -80t-14.5 -79.5t-39 -60.5t-58 -39t-70.5 -14zM200 353q31 0 59 12.5t48 34t32 51.5t12 66t-12 66.5t-32 53t-48 35t-59 12.5q-32 0 -59.5 -12.5
t-47.5 -35t-32 -53t-12 -66.5t12 -66t32 -51.5t47.5 -34t59.5 -12.5zM132 418v206h69q15 0 28.5 -3t24.5 -10.5t17.5 -19.5t6.5 -31t-11.5 -35t-28.5 -21l49 -86h-37l-39 76h-47v-76h-32zM164 521h29q23 0 37 8.5t14 28.5q0 17 -10.5 27.5t-37.5 10.5h-32v-75z" />
    <glyph glyph-name="macron" unicode="&#xaf;" horiz-adv-x="535" 
d="M144 606v36h246v-36h-246z" />
    <glyph glyph-name="degree" unicode="&#xb0;" horiz-adv-x="311" 
d="M156 447q-22 0 -42.5 8t-36.5 23t-25.5 37t-9.5 50t9.5 50t25.5 37.5t36.5 23.5t42.5 8t42.5 -8t36.5 -23.5t25.5 -37.5t9.5 -50t-9.5 -50t-25.5 -37t-36.5 -23t-42.5 -8zM156 479q35 0 57.5 24.5t22.5 61.5q0 38 -22.5 63t-57.5 25t-57.5 -25t-22.5 -63
q0 -37 22.5 -61.5t57.5 -24.5z" />
    <glyph glyph-name="plusminus" unicode="&#xb1;" horiz-adv-x="479" 
d="M219 109v201h-185v37h185v203h41v-203h185v-37h-185v-201h-41zM34 0v37h411v-37h-411z" />
    <glyph glyph-name="two.sups" unicode="&#xb2;" horiz-adv-x="362" 
d="M56 406v25q50 46 86.5 82t60 65t35 53.5t11.5 49.5q0 43 -23.5 68t-62.5 25q-27 0 -50.5 -18t-40.5 -44l-25 23q18 30 50.5 51.5t69.5 21.5q54 0 87.5 -30.5t33.5 -92.5q0 -31 -12.5 -59t-34.5 -57t-53.5 -60.5l-68.5 -68.5h192v-34h-255z" />
    <glyph glyph-name="three.sups" unicode="&#xb3;" horiz-adv-x="362" 
d="M177 394q-46 0 -81.5 22.5t-55.5 52.5l29 22q18 -29 46.5 -46.5t62.5 -17.5q37 0 64 21.5t27 61.5q0 38 -37 59t-101 21v28q59 0 90.5 25t31.5 59q0 32 -22.5 52.5t-60.5 20.5q-23 0 -46.5 -14.5t-42.5 -37.5l-25 22q21 27 50.5 45t67.5 18q49 0 83.5 -27t34.5 -76
q0 -37 -21.5 -61.5t-53.5 -37.5q18 -3 34 -11t29 -20t20.5 -28.5t7.5 -37.5q0 -27 -10 -48.5t-28 -36t-42 -22.5t-51 -8z" />
    <glyph glyph-name="acute" unicode="&#xb4;" horiz-adv-x="535" 
d="M238 574l-24 23l134 157l34 -29z" />
    <glyph glyph-name="uni00B5" unicode="&#xb5;" horiz-adv-x="543" 
d="M92 -180v660h44v-302q0 -72 24.5 -111t81.5 -39q19 0 37.5 3.5t37.5 15t39 33.5t41 59v341h44q-1 -106 -2 -209.5t-1 -206.5q0 -19 8.5 -28t21.5 -9q11 0 28 6l8 -36q-8 -4 -18 -6.5t-24 -2.5q-35 0 -49 23.5t-14 77.5h-3q-31 -52 -69 -76t-82 -24q-37 0 -65 11.5
t-48 48.5v-70.5t0.5 -54.5t1.5 -49.5t3 -54.5h-45z" />
    <glyph glyph-name="paragraph" unicode="&#xb6;" horiz-adv-x="515" 
d="M373 -80v739h46v-739h-46zM291 244q-55 0 -101 11.5t-79 36t-51 64t-18 95.5t17 95.5t48 64.5t74 36.5t94 11.5h44v-415h-28z" />
    <glyph glyph-name="periodcentered" unicode="&#xb7;" horiz-adv-x="219" 
d="M110 277q-17 0 -30 12t-13 33q0 22 13 34t30 12t29.5 -12t12.5 -34q0 -21 -12.5 -33t-29.5 -12z" />
    <glyph glyph-name="cedilla" unicode="&#xb8;" horiz-adv-x="535" 
d="M199 -219l-7 30q65 4 89 17t24 36q0 22 -18 33.5t-60 17.5l41 87h35l-30 -67q32 -8 51.5 -23.5t19.5 -45.5q0 -39 -37 -59.5t-108 -25.5z" />
    <glyph glyph-name="one.sups" unicode="&#xb9;" horiz-adv-x="362" 
d="M176 406v324h-82v27q29 6 49.5 15.5t37.5 23.5h33v-390h-38z" />
    <glyph glyph-name="ordmasculine" unicode="&#xba;" horiz-adv-x="360" 
d="M179 398q-30 0 -57 11.5t-46.5 33t-31 52.5t-11.5 70q0 40 11.5 71t31 52t46.5 32t57 11t57 -11t46.5 -32t31 -52t11.5 -71q0 -39 -11.5 -70t-31 -52.5t-46.5 -33t-57 -11.5zM179 431q49 0 78 37t29 97t-29 97t-78 37q-48 0 -77.5 -37t-29.5 -97t29.5 -97t77.5 -37z" />
    <glyph glyph-name="guillemotright" unicode="&#xbb;" horiz-adv-x="400" 
d="M78 72l-24 19l122 161l-122 159l24 21l138 -161v-38zM219 72l-24 19l122 161l-122 159l24 21l138 -161v-38z" />
    <glyph glyph-name="onequarter" unicode="&#xbc;" horiz-adv-x="764" 
d="M156 269v324h-82v27q29 6 49.5 15.5t37.5 23.5h33v-390h-38zM177 -12l368 683h38l-367 -683h-39zM625 0v114h-177v21l177 255h36v-244h58v-32h-58v-114h-36zM496 146h129v87l4 104h-4l-56 -83z" />
    <glyph glyph-name="onehalf" unicode="&#xbd;" horiz-adv-x="786" 
d="M156 269v324h-82v27q29 6 49.5 15.5t37.5 23.5h33v-390h-38zM154 -12l368 683h38l-367 -683h-39zM480 0v25q50 46 86.5 82t60 65t35 53.5t11.5 49.5q0 43 -23.5 68t-62.5 25q-27 0 -50.5 -18t-40.5 -44l-25 23q18 30 50.5 51.5t69.5 21.5q54 0 87.5 -30.5t33.5 -92.5
q0 -31 -12.5 -59t-34.5 -57t-53.5 -60.5l-68.5 -68.5h192v-34h-255z" />
    <glyph glyph-name="threequarters" unicode="&#xbe;" horiz-adv-x="783" 
d="M177 257q-46 0 -81.5 22.5t-55.5 52.5l29 22q18 -29 46.5 -46.5t62.5 -17.5q37 0 64 21.5t27 61.5q0 38 -37 59t-101 21v28q59 0 90.5 25t31.5 59q0 32 -22.5 52.5t-60.5 20.5q-23 0 -46.5 -14.5t-42.5 -37.5l-25 22q21 27 50.5 45t67.5 18q49 0 83.5 -27t34.5 -76
q0 -37 -21.5 -61.5t-53.5 -37.5q18 -3 34 -11t29 -20t20.5 -28.5t7.5 -37.5q0 -27 -10 -48.5t-28 -36t-42 -22.5t-51 -8zM224 -12l368 683h38l-367 -683h-39zM644 0v114h-177v21l177 255h36v-244h58v-32h-58v-114h-36zM515 146h129v87l4 104h-4l-56 -83z" />
    <glyph glyph-name="questiondown" unicode="&#xbf;" horiz-adv-x="402" 
d="M206 -202q-37 0 -65.5 11.5t-48.5 32t-30.5 48.5t-10.5 61q0 34 12.5 62.5t30.5 55t38.5 51.5t37 52.5t25.5 59t4 69.5h41q5 -41 -3.5 -74.5t-24.5 -62t-36 -53.5t-38 -49.5t-30 -50.5t-12 -57q0 -23 6.5 -44t20.5 -37.5t35.5 -26t51.5 -9.5q36 0 69.5 17t58.5 47l28 -25
q-29 -32 -68.5 -55t-91.5 -23zM216 401q-17 0 -29.5 12t-12.5 35q0 20 12.5 32t29.5 12t29.5 -12t12.5 -32q0 -23 -12.5 -35t-29.5 -12z" />
    <glyph glyph-name="Agrave" unicode="&#xc0;" horiz-adv-x="526" 
d="M188 388l-42 -123h234l-42 123q-20 59 -38 113t-35 115h-4q-17 -61 -35 -115t-38 -113zM8 0l232 659h46l232 -659h-48l-77 226h-261l-78 -226h-46zM284 706l-133 113l28 33l125 -123z" />
    <glyph glyph-name="Aacute" unicode="&#xc1;" horiz-adv-x="526" 
d="M188 388l-42 -123h234l-42 123q-20 59 -38 113t-35 115h-4q-17 -61 -35 -115t-38 -113zM8 0l232 659h46l232 -659h-48l-77 226h-261l-78 -226h-46zM242 706l-20 23l125 123l28 -33z" />
    <glyph glyph-name="Acircumflex" unicode="&#xc2;" horiz-adv-x="526" 
d="M188 388l-42 -123h234l-42 123q-20 59 -38 113t-35 115h-4q-17 -61 -35 -115t-38 -113zM8 0l232 659h46l232 -659h-48l-77 226h-261l-78 -226h-46zM128 726l113 113h44l113 -113l-20 -19l-113 98h-4l-113 -98z" />
    <glyph glyph-name="Atilde" unicode="&#xc3;" horiz-adv-x="526" 
d="M188 388l-42 -123h234l-42 123q-20 59 -38 113t-35 115h-4q-17 -61 -35 -115t-38 -113zM8 0l232 659h46l232 -659h-48l-77 226h-261l-78 -226h-46zM340 718q-29 0 -49 12.5t-36.5 27t-32 27t-36.5 12.5q-22 0 -37 -20.5t-18 -55.5l-33 3q2 47 24.5 78.5t63.5 31.5
q29 0 49 -12.5t36.5 -27t32 -27t36.5 -12.5q22 0 36 21t19 56l33 -3q-2 -47 -24.5 -79t-63.5 -32z" />
    <glyph glyph-name="Adieresis" unicode="&#xc4;" horiz-adv-x="526" 
d="M188 388l-42 -123h234l-42 123q-20 59 -38 113t-35 115h-4q-17 -61 -35 -115t-38 -113zM8 0l232 659h46l232 -659h-48l-77 226h-261l-78 -226h-46zM165 725q-16 0 -26 9.5t-10 26.5t10 27t26 10t26.5 -10t10.5 -27t-10.5 -26.5t-26.5 -9.5zM361 725q-16 0 -26.5 9.5
t-10.5 26.5t10.5 27t26.5 10t26 -10t10 -27t-10 -26.5t-26 -9.5z" />
    <glyph glyph-name="Aring" unicode="&#xc5;" horiz-adv-x="526" 
d="M188 388l-42 -123h234l-42 123q-20 59 -38 113t-35 115h-4q-17 -61 -35 -115t-38 -113zM8 0l232 659h46l232 -659h-48l-77 226h-261l-78 -226h-46zM263 700q-38 0 -63 23.5t-25 61.5q0 40 25 63t63 23q36 0 62 -23t26 -63q0 -38 -26 -61.5t-62 -23.5zM263 726
q23 0 39.5 15t16.5 44t-16.5 44.5t-39.5 15.5q-24 0 -41 -15.5t-17 -44.5t17 -44t41 -15z" />
    <glyph glyph-name="AE" unicode="&#xc6;" horiz-adv-x="809" 
d="M283 388l-73 -133h201v364h-4q-31 -56 -61.5 -113.5t-62.5 -117.5zM21 0l365 659h366v-40h-295v-249h245v-40h-245v-290h305v-40h-351v217h-222l-119 -217h-49z" />
    <glyph glyph-name="Ccedilla" unicode="&#xc7;" horiz-adv-x="564" 
d="M331 -12q-61 0 -112 24t-87.5 68.5t-56.5 108t-20 142.5q0 78 20.5 141t57.5 107.5t88.5 68t114.5 23.5q58 0 102 -24t70 -55l-27 -31q-27 31 -63 49.5t-81 18.5q-54 0 -97.5 -21t-74 -59.5t-46.5 -93.5t-16 -124t16 -124.5t46 -94.5t72.5 -60.5t95.5 -21.5q51 0 91 20.5
t76 60.5l27 -29q-38 -44 -85 -69t-111 -25zM262 -219l-7 30q65 4 89 17t24 36q0 22 -18 33.5t-60 17.5l41 87h35l-30 -67q32 -8 51.5 -23.5t19.5 -45.5q0 -39 -37 -59.5t-108 -25.5z" />
    <glyph glyph-name="Egrave" unicode="&#xc8;" horiz-adv-x="515" 
d="M97 0v659h361v-40h-315v-249h264v-40h-264v-290h325v-40h-371zM303 706l-133 113l28 33l125 -123z" />
    <glyph glyph-name="Eacute" unicode="&#xc9;" horiz-adv-x="515" 
d="M97 0v659h361v-40h-315v-249h264v-40h-264v-290h325v-40h-371zM261 706l-20 23l125 123l28 -33z" />
    <glyph glyph-name="Ecircumflex" unicode="&#xca;" horiz-adv-x="515" 
d="M97 0v659h361v-40h-315v-249h264v-40h-264v-290h325v-40h-371zM147 726l113 113h44l113 -113l-20 -19l-113 98h-4l-113 -98z" />
    <glyph glyph-name="Edieresis" unicode="&#xcb;" horiz-adv-x="515" 
d="M97 0v659h361v-40h-315v-249h264v-40h-264v-290h325v-40h-371zM184 725q-16 0 -26 9.5t-10 26.5t10 27t26 10t26.5 -10t10.5 -27t-10.5 -26.5t-26.5 -9.5zM380 725q-16 0 -26.5 9.5t-10.5 26.5t10.5 27t26.5 10t26 -10t10 -27t-10 -26.5t-26 -9.5z" />
    <glyph glyph-name="Igrave" unicode="&#xcc;" horiz-adv-x="240" 
d="M97 0v659h46v-659h-46zM141 706l-133 113l28 33l125 -123z" />
    <glyph glyph-name="Iacute" unicode="&#xcd;" horiz-adv-x="240" 
d="M97 0v659h46v-659h-46zM99 706l-20 23l125 123l28 -33z" />
    <glyph glyph-name="Icircumflex" unicode="&#xce;" horiz-adv-x="240" 
d="M97 0v659h46v-659h-46zM-15 726l113 113h44l113 -113l-20 -19l-113 98h-4l-113 -98z" />
    <glyph glyph-name="Idieresis" unicode="&#xcf;" horiz-adv-x="240" 
d="M97 0v659h46v-659h-46zM22 725q-16 0 -26 9.5t-10 26.5t10 27t26 10t26.5 -10t10.5 -27t-10.5 -26.5t-26.5 -9.5zM218 725q-16 0 -26.5 9.5t-10.5 26.5t10.5 27t26.5 10t26 -10t10 -27t-10 -26.5t-26 -9.5z" />
    <glyph glyph-name="Eth" unicode="&#xd0;" horiz-adv-x="625" 
d="M37 332v31l81 2v294h153q76 0 132.5 -23t93.5 -66t55 -103t18 -135t-18 -136.5t-55 -105t-93 -67t-132 -23.5h-154v332h-81zM164 39h102q67 0 115.5 21.5t79.5 60.5t46 92.5t15 118.5q0 64 -15 117t-46 91t-79.5 59t-115.5 21h-102v-255h163v-33h-163v-293z" />
    <glyph glyph-name="Ntilde" unicode="&#xd1;" horiz-adv-x="636" 
d="M97 0v659h48l278 -465l74 -131h4l-4 96t-2 96v404h44v-659h-48l-278 465l-74 131h-4q2 -48 4 -93.5t2 -93.5v-409h-44zM400 718q-29 0 -49 12.5t-36.5 27t-32 27t-36.5 12.5q-22 0 -37 -20.5t-18 -55.5l-33 3q2 47 24.5 78.5t63.5 31.5q29 0 49 -12.5t36.5 -27t32 -27
t36.5 -12.5q22 0 36 21t19 56l33 -3q-2 -47 -24.5 -79t-63.5 -32z" />
    <glyph glyph-name="Ograve" unicode="&#xd2;" horiz-adv-x="652" 
d="M326 -12q-59 0 -109 24.5t-86 69.5t-56 108.5t-20 141.5t20 140.5t56 107t86 68t109 23.5q60 0 110 -23.5t86 -68t56 -107t20 -140.5t-20 -141.5t-56 -108.5t-86 -69.5t-110 -24.5zM326 30q50 0 91 21.5t70.5 61t45.5 95t16 124.5q0 68 -16 123t-45.5 93.5t-70.5 59.5
t-91 21t-91.5 -21t-70.5 -59.5t-45 -93.5t-16 -123q0 -69 16 -124.5t45 -95t70.5 -61t91.5 -21.5zM347 706l-133 113l28 33l125 -123z" />
    <glyph glyph-name="Oacute" unicode="&#xd3;" horiz-adv-x="652" 
d="M326 -12q-59 0 -109 24.5t-86 69.5t-56 108.5t-20 141.5t20 140.5t56 107t86 68t109 23.5q60 0 110 -23.5t86 -68t56 -107t20 -140.5t-20 -141.5t-56 -108.5t-86 -69.5t-110 -24.5zM326 30q50 0 91 21.5t70.5 61t45.5 95t16 124.5q0 68 -16 123t-45.5 93.5t-70.5 59.5
t-91 21t-91.5 -21t-70.5 -59.5t-45 -93.5t-16 -123q0 -69 16 -124.5t45 -95t70.5 -61t91.5 -21.5zM305 706l-20 23l125 123l28 -33z" />
    <glyph glyph-name="Ocircumflex" unicode="&#xd4;" horiz-adv-x="652" 
d="M326 -12q-59 0 -109 24.5t-86 69.5t-56 108.5t-20 141.5t20 140.5t56 107t86 68t109 23.5q60 0 110 -23.5t86 -68t56 -107t20 -140.5t-20 -141.5t-56 -108.5t-86 -69.5t-110 -24.5zM326 30q50 0 91 21.5t70.5 61t45.5 95t16 124.5q0 68 -16 123t-45.5 93.5t-70.5 59.5
t-91 21t-91.5 -21t-70.5 -59.5t-45 -93.5t-16 -123q0 -69 16 -124.5t45 -95t70.5 -61t91.5 -21.5zM191 726l113 113h44l113 -113l-20 -19l-113 98h-4l-113 -98z" />
    <glyph glyph-name="Otilde" unicode="&#xd5;" horiz-adv-x="652" 
d="M326 -12q-59 0 -109 24.5t-86 69.5t-56 108.5t-20 141.5t20 140.5t56 107t86 68t109 23.5q60 0 110 -23.5t86 -68t56 -107t20 -140.5t-20 -141.5t-56 -108.5t-86 -69.5t-110 -24.5zM326 30q50 0 91 21.5t70.5 61t45.5 95t16 124.5q0 68 -16 123t-45.5 93.5t-70.5 59.5
t-91 21t-91.5 -21t-70.5 -59.5t-45 -93.5t-16 -123q0 -69 16 -124.5t45 -95t70.5 -61t91.5 -21.5zM403 718q-29 0 -49 12.5t-36.5 27t-32 27t-36.5 12.5q-22 0 -37 -20.5t-18 -55.5l-33 3q2 47 24.5 78.5t63.5 31.5q29 0 49 -12.5t36.5 -27t32 -27t36.5 -12.5q22 0 36 21
t19 56l33 -3q-2 -47 -24.5 -79t-63.5 -32z" />
    <glyph glyph-name="Odieresis" unicode="&#xd6;" horiz-adv-x="652" 
d="M326 -12q-59 0 -109 24.5t-86 69.5t-56 108.5t-20 141.5t20 140.5t56 107t86 68t109 23.5q60 0 110 -23.5t86 -68t56 -107t20 -140.5t-20 -141.5t-56 -108.5t-86 -69.5t-110 -24.5zM326 30q50 0 91 21.5t70.5 61t45.5 95t16 124.5q0 68 -16 123t-45.5 93.5t-70.5 59.5
t-91 21t-91.5 -21t-70.5 -59.5t-45 -93.5t-16 -123q0 -69 16 -124.5t45 -95t70.5 -61t91.5 -21.5zM228 725q-16 0 -26 9.5t-10 26.5t10 27t26 10t26.5 -10t10.5 -27t-10.5 -26.5t-26.5 -9.5zM424 725q-16 0 -26.5 9.5t-10.5 26.5t10.5 27t26.5 10t26 -10t10 -27t-10 -26.5
t-26 -9.5z" />
    <glyph glyph-name="multiply" unicode="&#xd7;" horiz-adv-x="479" 
d="M78 135l-26 28l161 167l-161 167l26 28l161 -169l162 169l26 -28l-161 -167l161 -167l-26 -28l-162 168z" />
    <glyph glyph-name="Oslash" unicode="&#xd8;" horiz-adv-x="652" 
d="M330 -12q-54 0 -99.5 20t-80.5 57l-66 -88l-28 22l70 94q-32 45 -49.5 105t-17.5 134q0 78 20 140.5t56 107t86 68t109 23.5q52 0 96.5 -18t79.5 -52l60 81l29 -22l-65 -86q35 -45 53.5 -105.5t18.5 -136.5q0 -78 -20 -141.5t-56 -108.5t-86 -69.5t-110 -24.5zM107 332
q0 -61 12.5 -111.5t35.5 -88.5l323 433q-29 31 -66 47.5t-82 16.5q-50 0 -91.5 -21t-70.5 -59.5t-45 -93.5t-16 -123zM330 30q50 0 91 21.5t70.5 61t45.5 95t16 124.5q0 63 -13.5 114t-38.5 89l-324 -434q29 -34 67.5 -52.5t85.5 -18.5z" />
    <glyph glyph-name="Ugrave" unicode="&#xd9;" horiz-adv-x="634" 
d="M316 -12q-42 0 -82 12.5t-71 43t-49.5 81.5t-18.5 128v406h46v-401q0 -66 14.5 -109.5t38.5 -70t55.5 -37.5t66.5 -11q36 0 68.5 11t57 37.5t39.5 70t15 109.5v401h43v-406q0 -77 -19 -128t-50 -81.5t-71 -43t-83 -12.5zM338 706l-133 113l28 33l125 -123z" />
    <glyph glyph-name="Uacute" unicode="&#xda;" horiz-adv-x="634" 
d="M316 -12q-42 0 -82 12.5t-71 43t-49.5 81.5t-18.5 128v406h46v-401q0 -66 14.5 -109.5t38.5 -70t55.5 -37.5t66.5 -11q36 0 68.5 11t57 37.5t39.5 70t15 109.5v401h43v-406q0 -77 -19 -128t-50 -81.5t-71 -43t-83 -12.5zM296 706l-20 23l125 123l28 -33z" />
    <glyph glyph-name="Ucircumflex" unicode="&#xdb;" horiz-adv-x="634" 
d="M316 -12q-42 0 -82 12.5t-71 43t-49.5 81.5t-18.5 128v406h46v-401q0 -66 14.5 -109.5t38.5 -70t55.5 -37.5t66.5 -11q36 0 68.5 11t57 37.5t39.5 70t15 109.5v401h43v-406q0 -77 -19 -128t-50 -81.5t-71 -43t-83 -12.5zM182 726l113 113h44l113 -113l-20 -19l-113 98h-4
l-113 -98z" />
    <glyph glyph-name="Udieresis" unicode="&#xdc;" horiz-adv-x="634" 
d="M316 -12q-42 0 -82 12.5t-71 43t-49.5 81.5t-18.5 128v406h46v-401q0 -66 14.5 -109.5t38.5 -70t55.5 -37.5t66.5 -11q36 0 68.5 11t57 37.5t39.5 70t15 109.5v401h43v-406q0 -77 -19 -128t-50 -81.5t-71 -43t-83 -12.5zM219 725q-16 0 -26 9.5t-10 26.5t10 27t26 10
t26.5 -10t10.5 -27t-10.5 -26.5t-26.5 -9.5zM415 725q-16 0 -26.5 9.5t-10.5 26.5t10.5 27t26.5 10t26 -10t10 -27t-10 -26.5t-26 -9.5z" />
    <glyph glyph-name="Yacute" unicode="&#xdd;" horiz-adv-x="447" 
d="M200 0v267l-197 392h49l100 -206q17 -36 33.5 -71t36.5 -71h4q19 36 37 71t34 71l100 206h47l-198 -392v-267h-46zM202 706l-20 23l125 123l28 -33z" />
    <glyph glyph-name="Thorn" unicode="&#xde;" horiz-adv-x="563" 
d="M97 0v659h46v-117h134q55 0 98.5 -10t74 -31.5t46.5 -56.5t16 -86q0 -97 -62 -144.5t-173 -47.5h-134v-166h-46zM143 205h123q101 0 150 36t49 117q0 82 -49.5 113.5t-149.5 31.5h-123v-298z" />
    <glyph glyph-name="germandbls" unicode="&#xdf;" horiz-adv-x="542" 
d="M367 -12q-39 0 -73 14t-63 37l22 33q29 -23 55.5 -34.5t58.5 -11.5q25 0 44 8.5t31.5 22t19 31.5t6.5 37q0 35 -15.5 57t-38.5 37.5t-50.5 28t-50.5 28.5t-38.5 38.5t-15.5 58.5t15.5 62t33.5 49.5t33.5 48t15.5 58.5q0 44 -23.5 72t-71.5 28q-57 0 -91.5 -42t-34.5 -132
v-517h-44v532q0 93 46.5 145t124.5 52q33 0 58.5 -10.5t43.5 -28.5t27.5 -42.5t9.5 -52.5q0 -39 -15.5 -66.5t-34 -51t-34 -47t-15.5 -53.5q0 -29 15.5 -47t39 -31.5t50.5 -26.5t50.5 -31t39 -45t15.5 -69q0 -30 -11 -55t-30.5 -44t-46 -29.5t-58.5 -10.5z" />
    <glyph glyph-name="agrave" unicode="&#xe0;" horiz-adv-x="491" 
d="M197 -12q-29 0 -54 8t-44 24t-30 41t-11 59q0 80 74.5 121.5t235.5 59.5q0 27 -4 54.5t-17 49t-35 35t-58 13.5q-48 0 -88 -19t-65 -37l-20 33q13 9 31.5 20t41.5 20t50 15.5t56 6.5q42 0 71 -14.5t47 -39.5t26 -58.5t8 -72.5v-307h-38l-4 62h-3q-37 -29 -79.5 -51.5
t-90.5 -22.5zM205 26q42 0 80 20t83 58v163q-74 -9 -125 -22t-82 -31t-44.5 -41t-13.5 -51q0 -26 8 -44t22 -29.5t32.5 -17t39.5 -5.5zM283 574l-144 151l34 29l134 -157z" />
    <glyph glyph-name="aacute" unicode="&#xe1;" horiz-adv-x="491" 
d="M197 -12q-29 0 -54 8t-44 24t-30 41t-11 59q0 80 74.5 121.5t235.5 59.5q0 27 -4 54.5t-17 49t-35 35t-58 13.5q-48 0 -88 -19t-65 -37l-20 33q13 9 31.5 20t41.5 20t50 15.5t56 6.5q42 0 71 -14.5t47 -39.5t26 -58.5t8 -72.5v-307h-38l-4 62h-3q-37 -29 -79.5 -51.5
t-90.5 -22.5zM205 26q42 0 80 20t83 58v163q-74 -9 -125 -22t-82 -31t-44.5 -41t-13.5 -51q0 -26 8 -44t22 -29.5t32.5 -17t39.5 -5.5zM225 574l-24 23l134 157l34 -29z" />
    <glyph glyph-name="acircumflex" unicode="&#xe2;" horiz-adv-x="491" 
d="M197 -12q-29 0 -54 8t-44 24t-30 41t-11 59q0 80 74.5 121.5t235.5 59.5q0 27 -4 54.5t-17 49t-35 35t-58 13.5q-48 0 -88 -19t-65 -37l-20 33q13 9 31.5 20t41.5 20t50 15.5t56 6.5q42 0 71 -14.5t47 -39.5t26 -58.5t8 -72.5v-307h-38l-4 62h-3q-37 -29 -79.5 -51.5
t-90.5 -22.5zM205 26q42 0 80 20t83 58v163q-74 -9 -125 -22t-82 -31t-44.5 -41t-13.5 -51q0 -26 8 -44t22 -29.5t32.5 -17t39.5 -5.5zM116 593l117 144h42l117 -144l-22 -21l-114 126h-4l-114 -126z" />
    <glyph glyph-name="atilde" unicode="&#xe3;" horiz-adv-x="491" 
d="M197 -12q-29 0 -54 8t-44 24t-30 41t-11 59q0 80 74.5 121.5t235.5 59.5q0 27 -4 54.5t-17 49t-35 35t-58 13.5q-48 0 -88 -19t-65 -37l-20 33q13 9 31.5 20t41.5 20t50 15.5t56 6.5q42 0 71 -14.5t47 -39.5t26 -58.5t8 -72.5v-307h-38l-4 62h-3q-37 -29 -79.5 -51.5
t-90.5 -22.5zM205 26q42 0 80 20t83 58v163q-74 -9 -125 -22t-82 -31t-44.5 -41t-13.5 -51q0 -26 8 -44t22 -29.5t32.5 -17t39.5 -5.5zM330 579q-29 0 -48.5 15t-35.5 33t-31.5 33t-36.5 15q-27 0 -39.5 -27t-14.5 -66l-34 2q1 24 6 46.5t15.5 40t27 28.5t40.5 11
q28 0 47.5 -15t35.5 -33t32 -33t37 -15q26 0 38.5 27.5t14.5 65.5l34 -2q-2 -23 -6.5 -45.5t-15 -40.5t-26.5 -29t-40 -11z" />
    <glyph glyph-name="adieresis" unicode="&#xe4;" horiz-adv-x="491" 
d="M197 -12q-29 0 -54 8t-44 24t-30 41t-11 59q0 80 74.5 121.5t235.5 59.5q0 27 -4 54.5t-17 49t-35 35t-58 13.5q-48 0 -88 -19t-65 -37l-20 33q13 9 31.5 20t41.5 20t50 15.5t56 6.5q42 0 71 -14.5t47 -39.5t26 -58.5t8 -72.5v-307h-38l-4 62h-3q-37 -29 -79.5 -51.5
t-90.5 -22.5zM205 26q42 0 80 20t83 58v163q-74 -9 -125 -22t-82 -31t-44.5 -41t-13.5 -51q0 -26 8 -44t22 -29.5t32.5 -17t39.5 -5.5zM165 598q-16 0 -26.5 10.5t-10.5 26.5t10.5 26.5t26.5 10.5t26.5 -10.5t10.5 -26.5t-10.5 -26.5t-26.5 -10.5zM343 598q-16 0 -26.5 10.5
t-10.5 26.5t10.5 26.5t26.5 10.5t26.5 -10.5t10.5 -26.5t-10.5 -26.5t-26.5 -10.5z" />
    <glyph glyph-name="aring" unicode="&#xe5;" horiz-adv-x="491" 
d="M197 -12q-29 0 -54 8t-44 24t-30 41t-11 59q0 80 74.5 121.5t235.5 59.5q0 27 -4 54.5t-17 49t-35 35t-58 13.5q-48 0 -88 -19t-65 -37l-20 33q13 9 31.5 20t41.5 20t50 15.5t56 6.5q42 0 71 -14.5t47 -39.5t26 -58.5t8 -72.5v-307h-38l-4 62h-3q-37 -29 -79.5 -51.5
t-90.5 -22.5zM205 26q42 0 80 20t83 58v163q-74 -9 -125 -22t-82 -31t-44.5 -41t-13.5 -51q0 -26 8 -44t22 -29.5t32.5 -17t39.5 -5.5zM254 548q-42 0 -69.5 26.5t-27.5 68.5q0 43 27.5 69.5t69.5 26.5t69.5 -26.5t27.5 -69.5q0 -42 -27.5 -68.5t-69.5 -26.5zM254 574
q27 0 46 18.5t19 50.5t-19 51t-46 19t-46 -19t-19 -51t19 -50.5t46 -18.5z" />
    <glyph glyph-name="ae" unicode="&#xe6;" horiz-adv-x="784" 
d="M205 -12q-29 0 -54 8t-44.5 24t-30.5 40.5t-11 58.5q0 80 75 122t230 60q0 27 -4 54.5t-16.5 49t-35 35t-57.5 13.5q-45 0 -84.5 -19t-63.5 -37l-20 33q13 9 31 20t40.5 20t48 15.5t52.5 6.5q59 0 93.5 -32.5t46.5 -87.5q26 55 69.5 87.5t97.5 32.5q85 0 131.5 -58
t46.5 -164v-18t-2 -18h-332q0 -45 13 -83t36 -65.5t54.5 -43t67.5 -15.5q39 0 68.5 11.5t56.5 31.5l19 -35q-14 -9 -29 -17t-33 -15t-39 -11t-47 -4q-32 0 -58 8.5t-47 22.5t-37.5 32t-29.5 36q-48 -46 -102.5 -72.5t-99.5 -26.5zM212 26q19 0 42 6t46.5 18t46.5 29.5
t44 39.5q-11 22 -16 54.5t-5 66.5l-1 27q-70 -9 -119 -21.5t-80 -30.5t-45 -41t-14 -52q0 -52 30 -74t71 -22zM412 268h293q0 93 -36.5 139.5t-101.5 46.5q-30 0 -56.5 -13.5t-47 -38t-34 -59t-17.5 -75.5z" />
    <glyph glyph-name="ccedilla" unicode="&#xe7;" horiz-adv-x="449" 
d="M270 -12q-47 0 -86.5 17t-69 49t-46 78.5t-16.5 106.5t18 107.5t48 79.5t69.5 49t83.5 17q50 0 83 -18t58 -41l-26 -31q-23 22 -51 36.5t-63 14.5q-37 0 -68.5 -15.5t-55 -44t-37 -67.5t-13.5 -87q0 -47 12.5 -86t35 -67t55 -43.5t71.5 -15.5q38 0 70.5 16t57.5 39
l23 -31q-31 -27 -69 -45t-84 -18zM188 -219l-7 30q65 4 89 17t24 36q0 22 -18 33.5t-60 17.5l41 87h35l-30 -67q32 -8 51.5 -23.5t19.5 -45.5q0 -39 -37 -59.5t-108 -25.5z" />
    <glyph glyph-name="egrave" unicode="&#xe8;" horiz-adv-x="483" 
d="M274 -12q-46 0 -86.5 17t-70.5 49.5t-47.5 79t-17.5 105.5t17.5 106t47 79.5t67 50t77.5 17.5q86 0 135 -58t49 -164v-18t-2 -18h-346q1 -45 14 -83.5t36.5 -66t56.5 -43t74 -15.5q39 0 70.5 11.5t58.5 31.5l18 -34q-29 -17 -63.5 -32t-87.5 -15zM97 270h306
q0 93 -38 138.5t-103 45.5q-31 0 -59 -12.5t-50.5 -36.5t-37 -58t-18.5 -77zM290 574l-144 151l34 29l134 -157z" />
    <glyph glyph-name="eacute" unicode="&#xe9;" horiz-adv-x="483" 
d="M274 -12q-46 0 -86.5 17t-70.5 49.5t-47.5 79t-17.5 105.5t17.5 106t47 79.5t67 50t77.5 17.5q86 0 135 -58t49 -164v-18t-2 -18h-346q1 -45 14 -83.5t36.5 -66t56.5 -43t74 -15.5q39 0 70.5 11.5t58.5 31.5l18 -34q-29 -17 -63.5 -32t-87.5 -15zM97 270h306
q0 93 -38 138.5t-103 45.5q-31 0 -59 -12.5t-50.5 -36.5t-37 -58t-18.5 -77zM232 574l-24 23l134 157l34 -29z" />
    <glyph glyph-name="ecircumflex" unicode="&#xea;" horiz-adv-x="483" 
d="M274 -12q-46 0 -86.5 17t-70.5 49.5t-47.5 79t-17.5 105.5t17.5 106t47 79.5t67 50t77.5 17.5q86 0 135 -58t49 -164v-18t-2 -18h-346q1 -45 14 -83.5t36.5 -66t56.5 -43t74 -15.5q39 0 70.5 11.5t58.5 31.5l18 -34q-29 -17 -63.5 -32t-87.5 -15zM97 270h306
q0 93 -38 138.5t-103 45.5q-31 0 -59 -12.5t-50.5 -36.5t-37 -58t-18.5 -77zM123 593l117 144h42l117 -144l-22 -21l-114 126h-4l-114 -126z" />
    <glyph glyph-name="edieresis" unicode="&#xeb;" horiz-adv-x="483" 
d="M274 -12q-46 0 -86.5 17t-70.5 49.5t-47.5 79t-17.5 105.5t17.5 106t47 79.5t67 50t77.5 17.5q86 0 135 -58t49 -164v-18t-2 -18h-346q1 -45 14 -83.5t36.5 -66t56.5 -43t74 -15.5q39 0 70.5 11.5t58.5 31.5l18 -34q-29 -17 -63.5 -32t-87.5 -15zM97 270h306
q0 93 -38 138.5t-103 45.5q-31 0 -59 -12.5t-50.5 -36.5t-37 -58t-18.5 -77zM172 598q-16 0 -26.5 10.5t-10.5 26.5t10.5 26.5t26.5 10.5t26.5 -10.5t10.5 -26.5t-10.5 -26.5t-26.5 -10.5zM350 598q-16 0 -26.5 10.5t-10.5 26.5t10.5 26.5t26.5 10.5t26.5 -10.5t10.5 -26.5
t-10.5 -26.5t-26.5 -10.5z" />
    <glyph glyph-name="igrave" unicode="&#xec;" horiz-adv-x="229" 
d="M92 0v480h44v-480h-44zM143 574l-144 151l34 29l134 -157z" />
    <glyph glyph-name="iacute" unicode="&#xed;" horiz-adv-x="229" 
d="M92 0v480h44v-480h-44zM85 574l-24 23l134 157l34 -29z" />
    <glyph glyph-name="icircumflex" unicode="&#xee;" horiz-adv-x="229" 
d="M92 0v480h44v-480h-44zM-24 593l117 144h42l117 -144l-22 -21l-114 126h-4l-114 -126z" />
    <glyph glyph-name="idieresis" unicode="&#xef;" horiz-adv-x="229" 
d="M92 0v480h44v-480h-44zM25 598q-16 0 -26.5 10.5t-10.5 26.5t10.5 26.5t26.5 10.5t26.5 -10.5t10.5 -26.5t-10.5 -26.5t-26.5 -10.5zM203 598q-16 0 -26.5 10.5t-10.5 26.5t10.5 26.5t26.5 10.5t26.5 -10.5t10.5 -26.5t-10.5 -26.5t-26.5 -10.5z" />
    <glyph glyph-name="eth" unicode="&#xf0;" horiz-adv-x="535" 
d="M267 -12q-40 0 -77.5 16t-66 45.5t-46 72.5t-17.5 97q0 49 15 90.5t42.5 70.5t65.5 45.5t84 16.5q43 0 81 -19t67 -57q-14 74 -44 127t-72 95l-142 -73l-15 27l132 68q-28 24 -59 44.5t-64 39.5l22 30q37 -20 71.5 -43t66.5 -52l142 74l15 -27l-134 -69q60 -61 98 -147
t38 -208q0 -60 -15 -109t-41.5 -83.5t-64 -53t-82.5 -18.5zM267 27q41 0 70.5 17.5t49 47.5t29 71t9.5 88q0 32 -3 62q-19 28 -38.5 46t-38.5 28t-38 13.5t-38 3.5q-41 0 -71.5 -15t-51.5 -40t-31.5 -59t-10.5 -71q0 -42 13 -77.5t35 -61t52 -39.5t63 -14z" />
    <glyph glyph-name="ntilde" unicode="&#xf1;" horiz-adv-x="532" 
d="M92 0v480h38l4 -74h3q37 37 76 61.5t89 24.5q75 0 110 -45t35 -139v-308h-44v302q0 77 -25.5 113.5t-84.5 36.5q-43 0 -78 -22.5t-79 -67.5v-362h-44zM359 579q-29 0 -48.5 15t-35.5 33t-31.5 33t-36.5 15q-27 0 -39.5 -27t-14.5 -66l-34 2q1 24 6 46.5t15.5 40t27 28.5
t40.5 11q28 0 47.5 -15t35.5 -33t32 -33t37 -15q26 0 38.5 27.5t14.5 65.5l34 -2q-2 -23 -6.5 -45.5t-15 -40.5t-26.5 -29t-40 -11z" />
    <glyph glyph-name="ograve" unicode="&#xf2;" horiz-adv-x="535" 
d="M267 -12q-43 0 -82 17t-68.5 49t-47 78.5t-17.5 106.5t17.5 107.5t47 79.5t68.5 49t82 17t82.5 -17t69 -49t47 -79.5t17.5 -107.5t-17.5 -106.5t-47 -78.5t-69 -49t-82.5 -17zM267 27q36 0 67.5 15.5t54 43.5t35.5 67t13 86q0 48 -13 87t-35.5 67.5t-54 44t-67.5 15.5
t-67 -15.5t-53.5 -44t-35.5 -67.5t-13 -87q0 -47 13 -86t35.5 -67t53.5 -43.5t67 -15.5zM296 574l-144 151l34 29l134 -157z" />
    <glyph glyph-name="oacute" unicode="&#xf3;" horiz-adv-x="535" 
d="M267 -12q-43 0 -82 17t-68.5 49t-47 78.5t-17.5 106.5t17.5 107.5t47 79.5t68.5 49t82 17t82.5 -17t69 -49t47 -79.5t17.5 -107.5t-17.5 -106.5t-47 -78.5t-69 -49t-82.5 -17zM267 27q36 0 67.5 15.5t54 43.5t35.5 67t13 86q0 48 -13 87t-35.5 67.5t-54 44t-67.5 15.5
t-67 -15.5t-53.5 -44t-35.5 -67.5t-13 -87q0 -47 13 -86t35.5 -67t53.5 -43.5t67 -15.5zM238 574l-24 23l134 157l34 -29z" />
    <glyph glyph-name="ocircumflex" unicode="&#xf4;" horiz-adv-x="535" 
d="M267 -12q-43 0 -82 17t-68.5 49t-47 78.5t-17.5 106.5t17.5 107.5t47 79.5t68.5 49t82 17t82.5 -17t69 -49t47 -79.5t17.5 -107.5t-17.5 -106.5t-47 -78.5t-69 -49t-82.5 -17zM267 27q36 0 67.5 15.5t54 43.5t35.5 67t13 86q0 48 -13 87t-35.5 67.5t-54 44t-67.5 15.5
t-67 -15.5t-53.5 -44t-35.5 -67.5t-13 -87q0 -47 13 -86t35.5 -67t53.5 -43.5t67 -15.5zM129 593l117 144h42l117 -144l-22 -21l-114 126h-4l-114 -126z" />
    <glyph glyph-name="otilde" unicode="&#xf5;" horiz-adv-x="535" 
d="M267 -12q-43 0 -82 17t-68.5 49t-47 78.5t-17.5 106.5t17.5 107.5t47 79.5t68.5 49t82 17t82.5 -17t69 -49t47 -79.5t17.5 -107.5t-17.5 -106.5t-47 -78.5t-69 -49t-82.5 -17zM267 27q36 0 67.5 15.5t54 43.5t35.5 67t13 86q0 48 -13 87t-35.5 67.5t-54 44t-67.5 15.5
t-67 -15.5t-53.5 -44t-35.5 -67.5t-13 -87q0 -47 13 -86t35.5 -67t53.5 -43.5t67 -15.5zM343 579q-29 0 -48.5 15t-35.5 33t-31.5 33t-36.5 15q-27 0 -39.5 -27t-14.5 -66l-34 2q1 24 6 46.5t15.5 40t27 28.5t40.5 11q28 0 47.5 -15t35.5 -33t32 -33t37 -15q26 0 38.5 27.5
t14.5 65.5l34 -2q-2 -23 -6.5 -45.5t-15 -40.5t-26.5 -29t-40 -11z" />
    <glyph glyph-name="odieresis" unicode="&#xf6;" horiz-adv-x="535" 
d="M267 -12q-43 0 -82 17t-68.5 49t-47 78.5t-17.5 106.5t17.5 107.5t47 79.5t68.5 49t82 17t82.5 -17t69 -49t47 -79.5t17.5 -107.5t-17.5 -106.5t-47 -78.5t-69 -49t-82.5 -17zM267 27q36 0 67.5 15.5t54 43.5t35.5 67t13 86q0 48 -13 87t-35.5 67.5t-54 44t-67.5 15.5
t-67 -15.5t-53.5 -44t-35.5 -67.5t-13 -87q0 -47 13 -86t35.5 -67t53.5 -43.5t67 -15.5zM178 598q-16 0 -26.5 10.5t-10.5 26.5t10.5 26.5t26.5 10.5t26.5 -10.5t10.5 -26.5t-10.5 -26.5t-26.5 -10.5zM356 598q-16 0 -26.5 10.5t-10.5 26.5t10.5 26.5t26.5 10.5t26.5 -10.5
t10.5 -26.5t-10.5 -26.5t-26.5 -10.5z" />
    <glyph glyph-name="divide" unicode="&#xf7;" horiz-adv-x="479" 
d="M34 311v38h411v-38h-411zM239 109q-16 0 -27 11t-11 30q0 17 11 28t27 11q17 0 27.5 -11t10.5 -28q0 -19 -10.5 -30t-27.5 -11zM239 469q-16 0 -27 11t-11 30q0 17 11 28t27 11q17 0 27.5 -11t10.5 -28q0 -19 -10.5 -30t-27.5 -11z" />
    <glyph glyph-name="oslash" unicode="&#xf8;" horiz-adv-x="535" 
d="M267 -12q-82 0 -141 56l-54 -66l-26 21l58 70q-24 32 -38 74t-14 96q0 60 17.5 107.5t47 79.5t68.5 49t82 17q40 0 76.5 -14t65.5 -42l54 65l26 -21l-58 -69q24 -32 38 -75t14 -97q0 -60 -17.5 -106.5t-47 -78.5t-69 -49t-82.5 -17zM97 240q0 -81 36 -137l249 300
q-46 51 -115 51q-36 0 -67.5 -15.5t-54 -44t-35.5 -68t-13 -86.5zM267 26q36 0 67.5 15.5t54.5 43.5t36 67t13 86q0 82 -36 138l-249 -300q47 -50 114 -50z" />
    <glyph glyph-name="ugrave" unicode="&#xf9;" horiz-adv-x="529" 
d="M230 -12q-75 0 -110 45t-35 139v308h44v-302q0 -77 25.5 -113.5t83.5 -36.5q43 0 78 23.5t77 74.5v354h44v-480h-37l-5 80h-2q-35 -42 -74 -67t-89 -25zM293 574l-144 151l34 29l134 -157z" />
    <glyph glyph-name="uacute" unicode="&#xfa;" horiz-adv-x="529" 
d="M230 -12q-75 0 -110 45t-35 139v308h44v-302q0 -77 25.5 -113.5t83.5 -36.5q43 0 78 23.5t77 74.5v354h44v-480h-37l-5 80h-2q-35 -42 -74 -67t-89 -25zM235 574l-24 23l134 157l34 -29z" />
    <glyph glyph-name="ucircumflex" unicode="&#xfb;" horiz-adv-x="529" 
d="M230 -12q-75 0 -110 45t-35 139v308h44v-302q0 -77 25.5 -113.5t83.5 -36.5q43 0 78 23.5t77 74.5v354h44v-480h-37l-5 80h-2q-35 -42 -74 -67t-89 -25zM126 593l117 144h42l117 -144l-22 -21l-114 126h-4l-114 -126z" />
    <glyph glyph-name="udieresis" unicode="&#xfc;" horiz-adv-x="529" 
d="M230 -12q-75 0 -110 45t-35 139v308h44v-302q0 -77 25.5 -113.5t83.5 -36.5q43 0 78 23.5t77 74.5v354h44v-480h-37l-5 80h-2q-35 -42 -74 -67t-89 -25zM175 598q-16 0 -26.5 10.5t-10.5 26.5t10.5 26.5t26.5 10.5t26.5 -10.5t10.5 -26.5t-10.5 -26.5t-26.5 -10.5z
M353 598q-16 0 -26.5 10.5t-10.5 26.5t10.5 26.5t26.5 10.5t26.5 -10.5t10.5 -26.5t-10.5 -26.5t-26.5 -10.5z" />
    <glyph glyph-name="yacute" unicode="&#xfd;" horiz-adv-x="436" 
d="M73 -219q-27 0 -49 10l10 39q8 -3 18 -5.5t21 -2.5q45 0 75 36t48 91l13 42l-197 489h48l116 -302q11 -30 24.5 -66t27.5 -68h4q11 32 22.5 68t21.5 66l103 302h45l-190 -540q-10 -30 -24.5 -59t-34 -51t-45 -35.5t-57.5 -13.5zM200 574l-24 23l134 157l34 -29z" />
    <glyph glyph-name="thorn" unicode="&#xfe;" horiz-adv-x="544" 
d="M92 -217v936h44v-298q36 28 77 49.5t86 21.5q48 0 84.5 -17.5t60.5 -49.5t36 -77t12 -101q0 -61 -17 -109t-46.5 -81.5t-68 -51t-80.5 -17.5q-35 0 -70.5 15t-73.5 43v-263h-44zM278 27q36 0 67 16t53 45t34.5 69.5t12.5 89.5q0 44 -8.5 82t-26.5 65.5t-47 43t-70 15.5
q-36 0 -74.5 -20.5t-82.5 -58.5v-285q42 -34 78 -48t64 -14z" />
    <glyph glyph-name="ydieresis" unicode="&#xff;" horiz-adv-x="436" 
d="M73 -219q-27 0 -49 10l10 39q8 -3 18 -5.5t21 -2.5q45 0 75 36t48 91l13 42l-197 489h48l116 -302q11 -30 24.5 -66t27.5 -68h4q11 32 22.5 68t21.5 66l103 302h45l-190 -540q-10 -30 -24.5 -59t-34 -51t-45 -35.5t-57.5 -13.5zM140 598q-16 0 -26.5 10.5t-10.5 26.5
t10.5 26.5t26.5 10.5t26.5 -10.5t10.5 -26.5t-10.5 -26.5t-26.5 -10.5zM318 598q-16 0 -26.5 10.5t-10.5 26.5t10.5 26.5t26.5 10.5t26.5 -10.5t10.5 -26.5t-10.5 -26.5t-26.5 -10.5z" />
    <glyph glyph-name="Amacron" unicode="&#x100;" horiz-adv-x="526" 
d="M188 388l-42 -123h234l-42 123q-20 59 -38 113t-35 115h-4q-17 -61 -35 -115t-38 -113zM8 0l232 659h46l232 -659h-48l-77 226h-261l-78 -226h-46zM139 743v36h248v-36h-248z" />
    <glyph glyph-name="amacron" unicode="&#x101;" horiz-adv-x="491" 
d="M197 -12q-29 0 -54 8t-44 24t-30 41t-11 59q0 80 74.5 121.5t235.5 59.5q0 27 -4 54.5t-17 49t-35 35t-58 13.5q-48 0 -88 -19t-65 -37l-20 33q13 9 31.5 20t41.5 20t50 15.5t56 6.5q42 0 71 -14.5t47 -39.5t26 -58.5t8 -72.5v-307h-38l-4 62h-3q-37 -29 -79.5 -51.5
t-90.5 -22.5zM205 26q42 0 80 20t83 58v163q-74 -9 -125 -22t-82 -31t-44.5 -41t-13.5 -51q0 -26 8 -44t22 -29.5t32.5 -17t39.5 -5.5zM131 606v36h246v-36h-246z" />
    <glyph glyph-name="Abreve" unicode="&#x102;" horiz-adv-x="526" 
d="M188 388l-42 -123h234l-42 123q-20 59 -38 113t-35 115h-4q-17 -61 -35 -115t-38 -113zM8 0l232 659h46l232 -659h-48l-77 226h-261l-78 -226h-46zM263 710q-33 0 -57.5 11t-41 29t-25.5 40t-12 44l33 5q3 -19 10 -36t20 -30.5t31 -21.5t42 -8t42 8t31 21.5t20 30.5
t10 36l33 -5q-3 -22 -12 -44t-25.5 -40t-41 -29t-57.5 -11z" />
    <glyph glyph-name="abreve" unicode="&#x103;" horiz-adv-x="491" 
d="M197 -12q-29 0 -54 8t-44 24t-30 41t-11 59q0 80 74.5 121.5t235.5 59.5q0 27 -4 54.5t-17 49t-35 35t-58 13.5q-48 0 -88 -19t-65 -37l-20 33q13 9 31.5 20t41.5 20t50 15.5t56 6.5q42 0 71 -14.5t47 -39.5t26 -58.5t8 -72.5v-307h-38l-4 62h-3q-37 -29 -79.5 -51.5
t-90.5 -22.5zM205 26q42 0 80 20t83 58v163q-74 -9 -125 -22t-82 -31t-44.5 -41t-13.5 -51q0 -26 8 -44t22 -29.5t32.5 -17t39.5 -5.5zM254 570q-39 0 -66 14t-44.5 35.5t-26.5 47.5t-12 51l33 5q3 -21 11.5 -42t22.5 -38.5t34.5 -28t47.5 -10.5t47.5 10.5t34.5 28
t22.5 38.5t11.5 42l33 -5q-3 -25 -12 -51t-26.5 -47.5t-44.5 -35.5t-66 -14z" />
    <glyph glyph-name="Aogonek" unicode="&#x104;" horiz-adv-x="526" 
d="M489 -205q-35 0 -59.5 20t-24.5 62q0 19 6 37t16 34t23 29.5t26 22.5h-6l-77 226h-261l-78 -226h-46l232 659h46l232 -659q-31 -20 -52.5 -52.5t-21.5 -63.5q0 -26 15.5 -39t35.5 -13q25 0 43 14l16 -27q-11 -10 -29.5 -17t-35.5 -7zM188 388l-42 -123h234l-42 123
q-20 59 -38 113t-35 115h-4q-17 -61 -35 -115t-38 -113z" />
    <glyph glyph-name="aogonek" unicode="&#x105;" horiz-adv-x="491" 
d="M369 -203q-35 0 -58.5 20t-23.5 61q0 38 26.5 72.5t61.5 56.5l-5 55h-3q-37 -29 -79.5 -51.5t-90.5 -22.5q-29 0 -54 8t-44 24t-30 40.5t-11 58.5q0 40 18.5 70t56.5 52t96.5 36.5t138.5 23.5q0 27 -4 54.5t-17 49t-35 35t-58 13.5q-48 0 -88 -19t-65 -37l-20 33
q13 9 31.5 20t41.5 20t50 15.5t56 6.5q42 0 71 -14.5t47 -39.5t26 -58.5t8 -72.5v-307q-38 -19 -62 -51.5t-24 -64.5q0 -26 14.5 -39t34.5 -13q23 0 43 14l16 -26q-12 -10 -30.5 -16.5t-34.5 -6.5zM205 26q42 0 80 20t83 58v163q-74 -9 -125 -22t-82 -31t-44.5 -41
t-13.5 -51q0 -26 8 -44t22 -29.5t32.5 -17t39.5 -5.5z" />
    <glyph glyph-name="Cacute" unicode="&#x106;" horiz-adv-x="564" 
d="M331 -12q-61 0 -112 24t-87.5 68.5t-56.5 108t-20 142.5q0 78 20.5 141t57.5 107.5t88.5 68t114.5 23.5q58 0 102 -24t70 -55l-27 -31q-27 31 -63 49.5t-81 18.5q-54 0 -97.5 -21t-74 -59.5t-46.5 -93.5t-16 -124t16 -124.5t46 -94.5t72.5 -60.5t95.5 -21.5q51 0 91 20.5
t76 60.5l27 -29q-38 -44 -85 -69t-111 -25zM302 706l-20 23l125 123l28 -33z" />
    <glyph glyph-name="cacute" unicode="&#x107;" horiz-adv-x="449" 
d="M270 -12q-47 0 -86.5 17t-69 49t-46 78.5t-16.5 106.5t18 107.5t48 79.5t69.5 49t83.5 17q50 0 83 -18t58 -41l-26 -31q-23 22 -51 36.5t-63 14.5q-37 0 -68.5 -15.5t-55 -44t-37 -67.5t-13.5 -87q0 -47 12.5 -86t35 -67t55 -43.5t71.5 -15.5q38 0 70.5 16t57.5 39
l23 -31q-31 -27 -69 -45t-84 -18zM242 574l-24 23l134 157l34 -29z" />
    <glyph glyph-name="Ccircumflex" unicode="&#x108;" horiz-adv-x="564" 
d="M331 -12q-61 0 -112 24t-87.5 68.5t-56.5 108t-20 142.5q0 78 20.5 141t57.5 107.5t88.5 68t114.5 23.5q58 0 102 -24t70 -55l-27 -31q-27 31 -63 49.5t-81 18.5q-54 0 -97.5 -21t-74 -59.5t-46.5 -93.5t-16 -124t16 -124.5t46 -94.5t72.5 -60.5t95.5 -21.5q51 0 91 20.5
t76 60.5l27 -29q-38 -44 -85 -69t-111 -25zM188 726l113 113h44l113 -113l-20 -19l-113 98h-4l-113 -98z" />
    <glyph glyph-name="ccircumflex" unicode="&#x109;" horiz-adv-x="449" 
d="M270 -12q-47 0 -86.5 17t-69 49t-46 78.5t-16.5 106.5t18 107.5t48 79.5t69.5 49t83.5 17q50 0 83 -18t58 -41l-26 -31q-23 22 -51 36.5t-63 14.5q-37 0 -68.5 -15.5t-55 -44t-37 -67.5t-13.5 -87q0 -47 12.5 -86t35 -67t55 -43.5t71.5 -15.5q38 0 70.5 16t57.5 39
l23 -31q-31 -27 -69 -45t-84 -18zM133 593l117 144h42l117 -144l-22 -21l-114 126h-4l-114 -126z" />
    <glyph glyph-name="Cdotaccent" unicode="&#x10a;" horiz-adv-x="564" 
d="M331 -12q-61 0 -112 24t-87.5 68.5t-56.5 108t-20 142.5q0 78 20.5 141t57.5 107.5t88.5 68t114.5 23.5q58 0 102 -24t70 -55l-27 -31q-27 31 -63 49.5t-81 18.5q-54 0 -97.5 -21t-74 -59.5t-46.5 -93.5t-16 -124t16 -124.5t46 -94.5t72.5 -60.5t95.5 -21.5q51 0 91 20.5
t76 60.5l27 -29q-38 -44 -85 -69t-111 -25zM323 721q-17 0 -28.5 11t-11.5 30q0 17 11.5 28t28.5 11t28.5 -11t11.5 -28q0 -19 -11.5 -30t-28.5 -11z" />
    <glyph glyph-name="cdotaccent" unicode="&#x10b;" horiz-adv-x="449" 
d="M270 -12q-47 0 -86.5 17t-69 49t-46 78.5t-16.5 106.5t18 107.5t48 79.5t69.5 49t83.5 17q50 0 83 -18t58 -41l-26 -31q-23 22 -51 36.5t-63 14.5q-37 0 -68.5 -15.5t-55 -44t-37 -67.5t-13.5 -87q0 -47 12.5 -86t35 -67t55 -43.5t71.5 -15.5q38 0 70.5 16t57.5 39
l23 -31q-31 -27 -69 -45t-84 -18zM271 596q-17 0 -27.5 11t-10.5 30q0 17 10.5 28t27.5 11t27.5 -11t10.5 -28q0 -19 -10.5 -30t-27.5 -11z" />
    <glyph glyph-name="Ccaron" unicode="&#x10c;" horiz-adv-x="564" 
d="M331 -12q-61 0 -112 24t-87.5 68.5t-56.5 108t-20 142.5q0 78 20.5 141t57.5 107.5t88.5 68t114.5 23.5q58 0 102 -24t70 -55l-27 -31q-27 31 -63 49.5t-81 18.5q-54 0 -97.5 -21t-74 -59.5t-46.5 -93.5t-16 -124t16 -124.5t46 -94.5t72.5 -60.5t95.5 -21.5q51 0 91 20.5
t76 60.5l27 -29q-38 -44 -85 -69t-111 -25zM301 709l-113 114l20 18l113 -98h4l113 98l20 -18l-113 -114h-44z" />
    <glyph glyph-name="ccaron" unicode="&#x10d;" horiz-adv-x="449" 
d="M270 -12q-47 0 -86.5 17t-69 49t-46 78.5t-16.5 106.5t18 107.5t48 79.5t69.5 49t83.5 17q50 0 83 -18t58 -41l-26 -31q-23 22 -51 36.5t-63 14.5q-37 0 -68.5 -15.5t-55 -44t-37 -67.5t-13.5 -87q0 -47 12.5 -86t35 -67t55 -43.5t71.5 -15.5q38 0 70.5 16t57.5 39
l23 -31q-31 -27 -69 -45t-84 -18zM250 573l-117 144l22 20l114 -125h4l114 125l22 -20l-117 -144h-42z" />
    <glyph glyph-name="Dcaron" unicode="&#x10e;" horiz-adv-x="604" 
d="M97 0v659h153q76 0 132.5 -23t93.5 -66t55 -103t18 -135t-18 -136.5t-55 -105t-93 -67t-132 -23.5h-154zM143 39h102q67 0 115.5 21.5t79.5 60.5t46 92.5t15 118.5q0 64 -15 117t-46 91t-79.5 59t-115.5 21h-102v-581zM280 709l-113 114l20 18l113 -98h4l113 98l20 -18
l-113 -114h-44z" />
    <glyph glyph-name="dcaron" unicode="&#x10f;" horiz-adv-x="549" 
d="M251 -12q-91 0 -145 64.5t-54 186.5q0 58 17 105t46.5 80t68 50.5t81.5 17.5q44 0 76.5 -15.5t68.5 -43.5l-2 88v198h44v-719h-38l-4 62h-3q-29 -29 -68.5 -51.5t-87.5 -22.5zM257 27q40 0 76.5 20.5t74.5 58.5v285q-38 34 -71.5 48t-68.5 14q-36 0 -67 -16.5t-53.5 -45
t-35.5 -68t-13 -84.5q0 -48 10.5 -87t30.5 -66.5t49.5 -43t67.5 -15.5zM517 548l-3 206h38v-50l-8 -156h-27z" />
    <glyph glyph-name="Dcroat" unicode="&#x110;" horiz-adv-x="625" 
d="M37 332v31l81 2v294h153q76 0 132.5 -23t93.5 -66t55 -103t18 -135t-18 -136.5t-55 -105t-93 -67t-132 -23.5h-154v332h-81zM164 39h102q67 0 115.5 21.5t79.5 60.5t46 92.5t15 118.5q0 64 -15 117t-46 91t-79.5 59t-115.5 21h-102v-255h163v-33h-163v-293z" />
    <glyph glyph-name="dcroat" unicode="&#x111;" horiz-adv-x="544" 
d="M251 -12q-91 0 -145 60t-54 174q0 54 17 97.5t46.5 74.5t68 47.5t81.5 16.5q44 0 76.5 -15.5t68.5 -43.5l-2 88v94h-170v33h170v105h44v-105h75v-29l-75 -4v-581h-38l-5 62h-2q-29 -30 -68.5 -52t-87.5 -22zM257 27q40 0 76.5 20.5t74.5 58.5v251q-38 34 -71.5 48
t-68.5 14q-36 0 -67 -15.5t-53.5 -42t-35.5 -62t-13 -76.5q0 -88 40.5 -142t117.5 -54z" />
    <glyph glyph-name="Emacron" unicode="&#x112;" horiz-adv-x="515" 
d="M97 0v659h361v-40h-315v-249h264v-40h-264v-290h325v-40h-371zM158 743v36h248v-36h-248z" />
    <glyph glyph-name="emacron" unicode="&#x113;" horiz-adv-x="483" 
d="M274 -12q-46 0 -86.5 17t-70.5 49.5t-47.5 79t-17.5 105.5t17.5 106t47 79.5t67 50t77.5 17.5q86 0 135 -58t49 -164v-18t-2 -18h-346q1 -45 14 -83.5t36.5 -66t56.5 -43t74 -15.5q39 0 70.5 11.5t58.5 31.5l18 -34q-29 -17 -63.5 -32t-87.5 -15zM97 270h306
q0 93 -38 138.5t-103 45.5q-31 0 -59 -12.5t-50.5 -36.5t-37 -58t-18.5 -77zM138 606v36h246v-36h-246z" />
    <glyph glyph-name="Ebreve" unicode="&#x114;" horiz-adv-x="515" 
d="M97 0v659h361v-40h-315v-249h264v-40h-264v-290h325v-40h-371zM282 710q-33 0 -57.5 11t-41 29t-25.5 40t-12 44l33 5q3 -19 10 -36t20 -30.5t31 -21.5t42 -8t42 8t31 21.5t20 30.5t10 36l33 -5q-3 -22 -12 -44t-25.5 -40t-41 -29t-57.5 -11z" />
    <glyph glyph-name="ebreve" unicode="&#x115;" horiz-adv-x="483" 
d="M274 -12q-46 0 -86.5 17t-70.5 49.5t-47.5 79t-17.5 105.5t17.5 106t47 79.5t67 50t77.5 17.5q86 0 135 -58t49 -164v-18t-2 -18h-346q1 -45 14 -83.5t36.5 -66t56.5 -43t74 -15.5q39 0 70.5 11.5t58.5 31.5l18 -34q-29 -17 -63.5 -32t-87.5 -15zM97 270h306
q0 93 -38 138.5t-103 45.5q-31 0 -59 -12.5t-50.5 -36.5t-37 -58t-18.5 -77zM261 570q-39 0 -66 14t-44.5 35.5t-26.5 47.5t-12 51l33 5q3 -21 11.5 -42t22.5 -38.5t34.5 -28t47.5 -10.5t47.5 10.5t34.5 28t22.5 38.5t11.5 42l33 -5q-3 -25 -12 -51t-26.5 -47.5t-44.5 -35.5
t-66 -14z" />
    <glyph glyph-name="Edotaccent" unicode="&#x116;" horiz-adv-x="515" 
d="M97 0v659h361v-40h-315v-249h264v-40h-264v-290h325v-40h-371zM282 721q-17 0 -28.5 11t-11.5 30q0 17 11.5 28t28.5 11t28.5 -11t11.5 -28q0 -19 -11.5 -30t-28.5 -11z" />
    <glyph glyph-name="edotaccent" unicode="&#x117;" horiz-adv-x="483" 
d="M274 -12q-46 0 -86.5 17t-70.5 49.5t-47.5 79t-17.5 105.5t17.5 106t47 79.5t67 50t77.5 17.5q86 0 135 -58t49 -164v-18t-2 -18h-346q1 -45 14 -83.5t36.5 -66t56.5 -43t74 -15.5q39 0 70.5 11.5t58.5 31.5l18 -34q-29 -17 -63.5 -32t-87.5 -15zM97 270h306
q0 93 -38 138.5t-103 45.5q-31 0 -59 -12.5t-50.5 -36.5t-37 -58t-18.5 -77zM261 596q-17 0 -27.5 11t-10.5 30q0 17 10.5 28t27.5 11t27.5 -11t10.5 -28q0 -19 -10.5 -30t-27.5 -11z" />
    <glyph glyph-name="Eogonek" unicode="&#x118;" horiz-adv-x="515" 
d="M415 -205q-35 0 -59.5 20t-24.5 62q0 38 22 71t51 52h-307v659h361v-40h-315v-249h264v-40h-264v-290h325v-40h-3q-17 -3 -33.5 -13.5t-30 -26t-22 -35t-8.5 -41.5q0 -26 15.5 -39t34.5 -13q25 0 43 14l17 -27q-12 -10 -30.5 -17t-35.5 -7z" />
    <glyph glyph-name="eogonek" unicode="&#x119;" horiz-adv-x="483" 
d="M355 -203q-35 0 -58 20t-23 61q0 19 6 36.5t15 33t20 28t22 21.5q-16 -5 -31 -7t-32 -2q-46 0 -86.5 17t-70.5 49.5t-47.5 79t-17.5 105.5t17.5 106t47 79.5t67 50t77.5 17.5q86 0 135 -58t49 -164v-18t-2 -18h-346q1 -45 14 -83.5t36.5 -66t56.5 -43t74 -15.5
q39 0 70.5 11.5t58.5 31.5l18 -34q-32 -24 -54 -44t-35 -38.5t-18.5 -35.5t-5.5 -33q0 -26 14.5 -39t34.5 -13q25 0 43 14l16 -26q-11 -10 -30 -16.5t-35 -6.5zM97 270h306q0 93 -38 138.5t-103 45.5q-31 0 -59 -12.5t-50.5 -36.5t-37 -58t-18.5 -77z" />
    <glyph glyph-name="Ecaron" unicode="&#x11a;" horiz-adv-x="515" 
d="M97 0v659h361v-40h-315v-249h264v-40h-264v-290h325v-40h-371zM260 709l-113 114l20 18l113 -98h4l113 98l20 -18l-113 -114h-44z" />
    <glyph glyph-name="ecaron" unicode="&#x11b;" horiz-adv-x="483" 
d="M274 -12q-46 0 -86.5 17t-70.5 49.5t-47.5 79t-17.5 105.5t17.5 106t47 79.5t67 50t77.5 17.5q86 0 135 -58t49 -164v-18t-2 -18h-346q1 -45 14 -83.5t36.5 -66t56.5 -43t74 -15.5q39 0 70.5 11.5t58.5 31.5l18 -34q-29 -17 -63.5 -32t-87.5 -15zM97 270h306
q0 93 -38 138.5t-103 45.5q-31 0 -59 -12.5t-50.5 -36.5t-37 -58t-18.5 -77zM240 573l-117 144l22 20l114 -125h4l114 125l22 -20l-117 -144h-42z" />
    <glyph glyph-name="Gcircumflex" unicode="&#x11c;" horiz-adv-x="605" 
d="M338 -12q-64 0 -116 24t-89 68.5t-57.5 108t-20.5 142.5q0 78 21 141t59 107.5t92 68t119 23.5q33 0 60.5 -7t49.5 -18.5t39.5 -25.5t30.5 -28l-27 -31q-26 28 -62 48t-90 20q-57 0 -102 -21t-76.5 -59.5t-48.5 -93.5t-17 -124t16 -124.5t46.5 -94.5t75 -60.5
t100.5 -21.5q45 0 84.5 13t63.5 37v205h-158v39h202v-261q-31 -33 -80.5 -54t-114.5 -21zM211 726l113 113h44l113 -113l-20 -19l-113 98h-4l-113 -98z" />
    <glyph glyph-name="gcircumflex" unicode="&#x11d;" horiz-adv-x="487" 
d="M249 -231q-91 0 -144 36t-53 97q0 32 19 62t52 54v4q-18 11 -30 30t-12 47q0 32 18 54.5t34 33.5v4q-23 20 -41.5 54t-18.5 78q0 37 13 68t36 53.5t54 35t66 12.5q20 0 36 -3.5t27 -8.5h163v-37h-112q23 -20 38 -51.5t15 -69.5q0 -37 -13 -68t-35.5 -53.5t-53 -35
t-65.5 -12.5q-20 0 -41.5 5t-38.5 15q-16 -13 -27.5 -29t-11.5 -40q0 -26 19 -44.5t73 -18.5h103q81 0 119.5 -26.5t38.5 -83.5q0 -31 -16 -60.5t-45.5 -52t-71.5 -36t-94 -13.5zM242 188q25 0 47.5 9.5t39.5 27.5t27 43t10 55t-10 55t-26.5 42t-39.5 26.5t-48 9.5
q-26 0 -48.5 -9.5t-39.5 -26.5t-27 -41.5t-10 -55.5q0 -30 10 -55t27.5 -43t40 -27.5t47.5 -9.5zM254 -195q40 0 73 10.5t56 27.5t35.5 38.5t12.5 44.5q0 40 -28.5 56.5t-82.5 16.5h-103q-8 0 -24.5 1.5t-35.5 6.5q-33 -23 -48 -49t-15 -52q0 -45 41.5 -73t118.5 -28z
M122 593l117 144h42l117 -144l-22 -21l-114 126h-4l-114 -126z" />
    <glyph glyph-name="Gbreve" unicode="&#x11e;" horiz-adv-x="605" 
d="M338 -12q-64 0 -116 24t-89 68.5t-57.5 108t-20.5 142.5q0 78 21 141t59 107.5t92 68t119 23.5q33 0 60.5 -7t49.5 -18.5t39.5 -25.5t30.5 -28l-27 -31q-26 28 -62 48t-90 20q-57 0 -102 -21t-76.5 -59.5t-48.5 -93.5t-17 -124t16 -124.5t46.5 -94.5t75 -60.5
t100.5 -21.5q45 0 84.5 13t63.5 37v205h-158v39h202v-261q-31 -33 -80.5 -54t-114.5 -21zM346 710q-33 0 -57.5 11t-41 29t-25.5 40t-12 44l33 5q3 -19 10 -36t20 -30.5t31 -21.5t42 -8t42 8t31 21.5t20 30.5t10 36l33 -5q-3 -22 -12 -44t-25.5 -40t-41 -29t-57.5 -11z" />
    <glyph glyph-name="gbreve" unicode="&#x11f;" horiz-adv-x="487" 
d="M249 -231q-91 0 -144 36t-53 97q0 32 19 62t52 54v4q-18 11 -30 30t-12 47q0 32 18 54.5t34 33.5v4q-23 20 -41.5 54t-18.5 78q0 37 13 68t36 53.5t54 35t66 12.5q20 0 36 -3.5t27 -8.5h163v-37h-112q23 -20 38 -51.5t15 -69.5q0 -37 -13 -68t-35.5 -53.5t-53 -35
t-65.5 -12.5q-20 0 -41.5 5t-38.5 15q-16 -13 -27.5 -29t-11.5 -40q0 -26 19 -44.5t73 -18.5h103q81 0 119.5 -26.5t38.5 -83.5q0 -31 -16 -60.5t-45.5 -52t-71.5 -36t-94 -13.5zM242 188q25 0 47.5 9.5t39.5 27.5t27 43t10 55t-10 55t-26.5 42t-39.5 26.5t-48 9.5
q-26 0 -48.5 -9.5t-39.5 -26.5t-27 -41.5t-10 -55.5q0 -30 10 -55t27.5 -43t40 -27.5t47.5 -9.5zM254 -195q40 0 73 10.5t56 27.5t35.5 38.5t12.5 44.5q0 40 -28.5 56.5t-82.5 16.5h-103q-8 0 -24.5 1.5t-35.5 6.5q-33 -23 -48 -49t-15 -52q0 -45 41.5 -73t118.5 -28z
M260 570q-39 0 -66 14t-44.5 35.5t-26.5 47.5t-12 51l33 5q3 -21 11.5 -42t22.5 -38.5t34.5 -28t47.5 -10.5t47.5 10.5t34.5 28t22.5 38.5t11.5 42l33 -5q-3 -25 -12 -51t-26.5 -47.5t-44.5 -35.5t-66 -14z" />
    <glyph glyph-name="Gdotaccent" unicode="&#x120;" horiz-adv-x="605" 
d="M338 -12q-64 0 -116 24t-89 68.5t-57.5 108t-20.5 142.5q0 78 21 141t59 107.5t92 68t119 23.5q33 0 60.5 -7t49.5 -18.5t39.5 -25.5t30.5 -28l-27 -31q-26 28 -62 48t-90 20q-57 0 -102 -21t-76.5 -59.5t-48.5 -93.5t-17 -124t16 -124.5t46.5 -94.5t75 -60.5
t100.5 -21.5q45 0 84.5 13t63.5 37v205h-158v39h202v-261q-31 -33 -80.5 -54t-114.5 -21zM346 721q-17 0 -28.5 11t-11.5 30q0 17 11.5 28t28.5 11t28.5 -11t11.5 -28q0 -19 -11.5 -30t-28.5 -11z" />
    <glyph glyph-name="gdotaccent" unicode="&#x121;" horiz-adv-x="487" 
d="M249 -231q-91 0 -144 36t-53 97q0 32 19 62t52 54v4q-18 11 -30 30t-12 47q0 32 18 54.5t34 33.5v4q-23 20 -41.5 54t-18.5 78q0 37 13 68t36 53.5t54 35t66 12.5q20 0 36 -3.5t27 -8.5h163v-37h-112q23 -20 38 -51.5t15 -69.5q0 -37 -13 -68t-35.5 -53.5t-53 -35
t-65.5 -12.5q-20 0 -41.5 5t-38.5 15q-16 -13 -27.5 -29t-11.5 -40q0 -26 19 -44.5t73 -18.5h103q81 0 119.5 -26.5t38.5 -83.5q0 -31 -16 -60.5t-45.5 -52t-71.5 -36t-94 -13.5zM242 188q25 0 47.5 9.5t39.5 27.5t27 43t10 55t-10 55t-26.5 42t-39.5 26.5t-48 9.5
q-26 0 -48.5 -9.5t-39.5 -26.5t-27 -41.5t-10 -55.5q0 -30 10 -55t27.5 -43t40 -27.5t47.5 -9.5zM254 -195q40 0 73 10.5t56 27.5t35.5 38.5t12.5 44.5q0 40 -28.5 56.5t-82.5 16.5h-103q-8 0 -24.5 1.5t-35.5 6.5q-33 -23 -48 -49t-15 -52q0 -45 41.5 -73t118.5 -28z
M260 596q-17 0 -27.5 11t-10.5 30q0 17 10.5 28t27.5 11t27.5 -11t10.5 -28q0 -19 -10.5 -30t-27.5 -11z" />
    <glyph glyph-name="uni0122" unicode="&#x122;" horiz-adv-x="605" 
d="M338 -12q-64 0 -116 24t-89 68.5t-57.5 108t-20.5 142.5q0 78 21 141t59 107.5t92 68t119 23.5q33 0 60.5 -7t49.5 -18.5t39.5 -25.5t30.5 -28l-27 -31q-26 28 -62 48t-90 20q-57 0 -102 -21t-76.5 -59.5t-48.5 -93.5t-17 -124t16 -124.5t46.5 -94.5t75 -60.5
t100.5 -21.5q45 0 84.5 13t63.5 37v205h-158v39h202v-261q-31 -33 -80.5 -54t-114.5 -21zM263 -219l-7 30q65 4 89 17t24 35q0 23 -20.5 33.5t-56.5 13.5l13 29q57 -8 80 -24.5t23 -48.5q0 -39 -37 -59.5t-108 -25.5z" />
    <glyph glyph-name="uni0123" unicode="&#x123;" horiz-adv-x="487" 
d="M249 -231q-91 0 -144 36t-53 97q0 32 19 62t52 54v4q-18 11 -30 30t-12 47q0 32 18 54.5t34 33.5v4q-23 20 -41.5 54t-18.5 78q0 37 13 68t36 53.5t54 35t66 12.5q20 0 36 -3.5t27 -8.5h163v-37h-112q23 -20 38 -51.5t15 -69.5q0 -37 -13 -68t-35.5 -53.5t-53 -35
t-65.5 -12.5q-20 0 -41.5 5t-38.5 15q-16 -13 -27.5 -29t-11.5 -40q0 -26 19 -44.5t73 -18.5h103q81 0 119.5 -26.5t38.5 -83.5q0 -31 -16 -60.5t-45.5 -52t-71.5 -36t-94 -13.5zM242 188q25 0 47.5 9.5t39.5 27.5t27 43t10 55t-10 55t-26.5 42t-39.5 26.5t-48 9.5
q-26 0 -48.5 -9.5t-39.5 -26.5t-27 -41.5t-10 -55.5q0 -30 10 -55t27.5 -43t40 -27.5t47.5 -9.5zM254 -195q40 0 73 10.5t56 27.5t35.5 38.5t12.5 44.5q0 40 -28.5 56.5t-82.5 16.5h-103q-8 0 -24.5 1.5t-35.5 6.5q-33 -23 -48 -49t-15 -52q0 -45 41.5 -73t118.5 -28z
M295 579q-57 8 -80 24.5t-23 48.5q0 39 37 59.5t108 25.5l7 -30q-65 -5 -89 -18t-24 -35q0 -23 20.5 -33t56.5 -13z" />
    <glyph glyph-name="Hcircumflex" unicode="&#x124;" horiz-adv-x="639" 
d="M97 0v659h46v-289h353v289h46v-659h-46v330h-353v-330h-46zM184 726l113 113h44l113 -113l-20 -19l-113 98h-4l-113 -98z" />
    <glyph glyph-name="hcircumflex" unicode="&#x125;" horiz-adv-x="528" 
d="M92 0v719h44v-314q38 38 77 62.5t89 24.5q75 0 110 -45t35 -139v-308h-44v302q0 77 -25.5 113.5t-84.5 36.5q-43 0 -78 -22.5t-79 -67.5v-362h-44zM-19 765l113 113h44l113 -113l-20 -19l-113 98h-4l-113 -98z" />
    <glyph glyph-name="Hbar" unicode="&#x126;" horiz-adv-x="672" 
d="M36 495v29l81 4v131h46v-131h353v131h46v-131h73v-33h-73v-495h-46v330h-353v-330h-46v495h-81zM163 370h353v125h-353v-125z" />
    <glyph glyph-name="hbar" unicode="&#x127;" horiz-adv-x="528" 
d="M92 0v581h-77v29l77 4v105h44v-105h190v-33h-190v-210q38 38 77 62.5t89 24.5q75 0 110 -45t35 -139v-274h-44v268q0 77 -25.5 113.5t-84.5 36.5q-43 0 -78 -22.5t-79 -67.5v-328h-44z" />
    <glyph glyph-name="Itilde" unicode="&#x128;" horiz-adv-x="240" 
d="M97 0v659h46v-659h-46zM197 718q-29 0 -49 12.5t-36.5 27t-32 27t-36.5 12.5q-22 0 -37 -20.5t-18 -55.5l-33 3q2 47 24.5 78.5t63.5 31.5q29 0 49 -12.5t36.5 -27t32 -27t36.5 -12.5q22 0 36 21t19 56l33 -3q-2 -47 -24.5 -79t-63.5 -32z" />
    <glyph glyph-name="itilde" unicode="&#x129;" horiz-adv-x="229" 
d="M92 0v480h44v-480h-44zM190 579q-29 0 -48.5 15t-35.5 33t-31.5 33t-36.5 15q-27 0 -39.5 -27t-14.5 -66l-34 2q1 24 6 46.5t15.5 40t27 28.5t40.5 11q28 0 47.5 -15t35.5 -33t32 -33t37 -15q26 0 38.5 27.5t14.5 65.5l34 -2q-2 -23 -6.5 -45.5t-15 -40.5t-26.5 -29
t-40 -11z" />
    <glyph glyph-name="Imacron" unicode="&#x12a;" horiz-adv-x="240" 
d="M97 0v659h46v-659h-46zM-4 743v36h248v-36h-248z" />
    <glyph glyph-name="imacron" unicode="&#x12b;" horiz-adv-x="229" 
d="M92 0v480h44v-480h-44zM-9 606v36h246v-36h-246z" />
    <glyph glyph-name="uni012C" unicode="&#x12c;" horiz-adv-x="240" 
d="M97 0v659h46v-659h-46zM120 710q-33 0 -57.5 11t-41 29t-25.5 40t-12 44l33 5q3 -19 10 -36t20 -30.5t31 -21.5t42 -8t42 8t31 21.5t20 30.5t10 36l33 -5q-3 -22 -12 -44t-25.5 -40t-41 -29t-57.5 -11z" />
    <glyph glyph-name="uni012D" unicode="&#x12d;" horiz-adv-x="229" 
d="M92 0v480h44v-480h-44zM115 570q-39 0 -66 14t-44.5 35.5t-26.5 47.5t-12 51l33 5q3 -21 11.5 -42t22.5 -38.5t34.5 -28t47.5 -10.5t47.5 10.5t34.5 28t22.5 38.5t11.5 42l33 -5q-3 -25 -12 -51t-26.5 -47.5t-44.5 -35.5t-66 -14z" />
    <glyph glyph-name="Iogonek" unicode="&#x12e;" horiz-adv-x="240" 
d="M128 -205q-35 0 -59.5 20t-24.5 62q0 41 18 69t44 54h-9v659h46v-659q-26 -29 -43 -56t-17 -60q0 -26 16 -39t35 -13q25 0 43 14l16 -27q-11 -10 -29.5 -17t-35.5 -7z" />
    <glyph glyph-name="iogonek" unicode="&#x12f;" horiz-adv-x="229" 
d="M118 -203q-35 0 -58 20t-23 61q0 38 20 68t42 54h-7v480h44v-480q-24 -26 -42.5 -55t-18.5 -61q0 -26 15 -39t34 -13q23 0 43 14l16 -26q-11 -10 -30 -16.5t-35 -6.5zM113 596q-16 0 -28 11t-12 28q0 19 12 29.5t28 10.5q17 0 29 -10.5t12 -29.5q0 -17 -12 -28t-29 -11z
" />
    <glyph glyph-name="Idotaccent" unicode="&#x130;" horiz-adv-x="240" 
d="M97 0v659h46v-659h-46zM120 721q-17 0 -28.5 11t-11.5 30q0 17 11.5 28t28.5 11t28.5 -11t11.5 -28q0 -19 -11.5 -30t-28.5 -11z" />
    <glyph glyph-name="dotlessi" unicode="&#x131;" horiz-adv-x="229" 
d="M92 0v480h44v-480h-44z" />
    <glyph glyph-name="uni0132" unicode="&#x132;" horiz-adv-x="481" 
d="M97 0v659h46v-659h-46zM274 -156q-17 0 -33.5 4t-27.5 9l10 39q9 -3 22.5 -6t27.5 -3q40 0 52.5 29t12.5 75v668h46v-674q0 -141 -110 -141z" />
    <glyph glyph-name="uni0133" unicode="&#x133;" horiz-adv-x="457" 
d="M92 0v480h44v-480h-44zM115 596q-17 0 -28.5 11t-11.5 28q0 19 11.5 29.5t28.5 10.5t28.5 -10.5t11.5 -29.5q0 -17 -11.5 -28t-28.5 -11zM258 -229q-17 0 -34 3.5t-28 8.5l11 36q9 -3 22.5 -6.5t27.5 -3.5q40 0 52 29.5t12 75.5v566h45v-569q0 -71 -26 -105.5t-82 -34.5z
M344 596q-16 0 -28 11t-12 28q0 19 12 29.5t28 10.5q17 0 29 -10.5t12 -29.5q0 -17 -12 -28t-29 -11z" />
    <glyph glyph-name="Jcircumflex" unicode="&#x134;" horiz-adv-x="462" 
d="M203 -12q-55 0 -96 25t-66 72l35 23q24 -42 54.5 -60t72.5 -18q60 0 89 36.5t29 117.5v475h46v-480q0 -40 -9 -74.5t-28.5 -60.5t-50.5 -41t-76 -15zM205 726l113 113h44l113 -113l-20 -19l-113 98h-4l-113 -98z" />
    <glyph glyph-name="jcircumflex" unicode="&#x135;" horiz-adv-x="229" 
d="M29 -229q-17 0 -34 3.5t-28 8.5l11 36q9 -3 22.5 -6.5t27.5 -3.5q40 0 52 29.5t12 75.5v566h45v-569q0 -71 -26 -105.5t-82 -34.5zM-24 593l117 144h42l117 -144l-22 -21l-114 126h-4l-114 -126z" />
    <glyph glyph-name="uni0136" unicode="&#x136;" horiz-adv-x="558" 
d="M97 0v659h46v-366h2l319 366h55l-210 -244l239 -415h-53l-218 380l-134 -153v-227h-46zM245 -219l-7 30q65 4 89 17t24 35q0 23 -20.5 33.5t-56.5 13.5l13 29q57 -8 80 -24.5t23 -48.5q0 -39 -37 -59.5t-108 -25.5z" />
    <glyph glyph-name="uni0137" unicode="&#x137;" horiz-adv-x="464" 
d="M92 0v719h44v-530h2l237 291h51l-156 -190l182 -290h-49l-159 257l-108 -126v-131h-44zM180 -219l-7 30q65 4 89 17t24 35q0 23 -20.5 33.5t-56.5 13.5l13 29q57 -8 80 -24.5t23 -48.5q0 -39 -37 -59.5t-108 -25.5z" />
    <glyph glyph-name="kgreenlandic" unicode="&#x138;" horiz-adv-x="464" 
d="M92 0v480h44v-291h3l236 291h51l-156 -190l182 -290h-49l-159 257l-108 -127v-130h-44z" />
    <glyph glyph-name="Lacute" unicode="&#x139;" horiz-adv-x="467" 
d="M97 0v659h46v-619h304v-40h-350zM101 706l-20 23l125 123l28 -33z" />
    <glyph glyph-name="lacute" unicode="&#x13a;" horiz-adv-x="237" 
d="M151 -12q-59 0 -59 76v655h44v-661q0 -16 6 -23.5t15 -7.5h6.5t11.5 2l8 -36q-7 -2 -14 -3.5t-18 -1.5zM85 757l-20 23l125 123l28 -33z" />
    <glyph glyph-name="uni013B" unicode="&#x13b;" horiz-adv-x="467" 
d="M97 0v659h46v-619h304v-40h-350zM209 -219l-7 30q65 4 89 17t24 35q0 23 -20.5 33.5t-56.5 13.5l13 29q57 -8 80 -24.5t23 -48.5q0 -39 -37 -59.5t-108 -25.5z" />
    <glyph glyph-name="uni013C" unicode="&#x13c;" horiz-adv-x="237" 
d="M151 -12q-59 0 -59 76v655h44v-661q0 -16 6 -23.5t15 -7.5h6.5t11.5 2l8 -36q-7 -2 -14 -3.5t-18 -1.5zM63 -219l-7 30q65 4 89 17t24 35q0 23 -20.5 33.5t-56.5 13.5l13 29q57 -8 80 -24.5t23 -48.5q0 -39 -37 -59.5t-108 -25.5z" />
    <glyph glyph-name="Lcaron" unicode="&#x13d;" horiz-adv-x="467" 
d="M97 0v659h46v-619h304v-40h-350zM322 518l-3 206h38v-50l-8 -156h-27z" />
    <glyph glyph-name="lcaron" unicode="&#x13e;" horiz-adv-x="241" 
d="M151 -12q-59 0 -59 76v655h44v-661q0 -16 6 -23.5t15 -7.5h6.5t11.5 2l8 -36q-7 -2 -14 -3.5t-18 -1.5zM202 548l-3 206h38v-50l-8 -156h-27z" />
    <glyph glyph-name="Ldot" unicode="&#x13f;" horiz-adv-x="467" 
d="M97 0v659h46v-619h304v-40h-350zM358 278q-17 0 -30 12t-13 33q0 22 13 34t30 12t29.5 -12t12.5 -34q0 -21 -12.5 -33t-29.5 -12z" />
    <glyph glyph-name="ldot" unicode="&#x140;" horiz-adv-x="308" 
d="M151 -12q-59 0 -59 76v655h44v-661q0 -16 6 -23.5t15 -7.5h6.5t11.5 2l8 -36q-7 -2 -14 -3.5t-18 -1.5zM268 278q-17 0 -30 12t-13 33q0 22 13 34t30 12t29.5 -12t12.5 -34q0 -21 -12.5 -33t-29.5 -12z" />
    <glyph glyph-name="Lslash" unicode="&#x141;" horiz-adv-x="468" 
d="M23 215l-19 31l97 52v361h46v-341l187 99l18 -32l-205 -107v-238h304v-40h-350v257z" />
    <glyph glyph-name="lslash" unicode="&#x142;" horiz-adv-x="239" 
d="M152 -12q-59 0 -59 76v300l-65 -42l-18 30l83 54v313h44v-288l57 38l19 -30l-76 -51v-330q0 -16 6 -23.5t15 -7.5h6.5t11.5 2l8 -36q-7 -2 -14 -3.5t-18 -1.5z" />
    <glyph glyph-name="Nacute" unicode="&#x143;" horiz-adv-x="636" 
d="M97 0v659h48l278 -465l74 -131h4l-4 96t-2 96v404h44v-659h-48l-278 465l-74 131h-4q2 -48 4 -93.5t2 -93.5v-409h-44zM302 706l-20 23l125 123l28 -33z" />
    <glyph glyph-name="nacute" unicode="&#x144;" horiz-adv-x="532" 
d="M92 0v480h38l4 -74h3q37 37 76 61.5t89 24.5q75 0 110 -45t35 -139v-308h-44v302q0 77 -25.5 113.5t-84.5 36.5q-43 0 -78 -22.5t-79 -67.5v-362h-44zM254 574l-24 23l134 157l34 -29z" />
    <glyph glyph-name="uni0145" unicode="&#x145;" horiz-adv-x="636" 
d="M97 0v659h48l278 -465l74 -131h4l-4 96t-2 96v404h44v-659h-48l-278 465l-74 131h-4q2 -48 4 -93.5t2 -93.5v-409h-44zM242 -219l-7 30q65 4 89 17t24 35q0 23 -20.5 33.5t-56.5 13.5l13 29q57 -8 80 -24.5t23 -48.5q0 -39 -37 -59.5t-108 -25.5z" />
    <glyph glyph-name="uni0146" unicode="&#x146;" horiz-adv-x="532" 
d="M92 0v480h38l4 -74h3q37 37 76 61.5t89 24.5q75 0 110 -45t35 -139v-308h-44v302q0 77 -25.5 113.5t-84.5 36.5q-43 0 -78 -22.5t-79 -67.5v-362h-44zM195 -219l-7 30q65 4 89 17t24 35q0 23 -20.5 33.5t-56.5 13.5l13 29q57 -8 80 -24.5t23 -48.5q0 -39 -37 -59.5
t-108 -25.5z" />
    <glyph glyph-name="Ncaron" unicode="&#x147;" horiz-adv-x="636" 
d="M97 0v659h48l278 -465l74 -131h4l-4 96t-2 96v404h44v-659h-48l-278 465l-74 131h-4q2 -48 4 -93.5t2 -93.5v-409h-44zM301 709l-113 114l20 18l113 -98h4l113 98l20 -18l-113 -114h-44z" />
    <glyph glyph-name="ncaron" unicode="&#x148;" horiz-adv-x="532" 
d="M92 0v480h38l4 -74h3q37 37 76 61.5t89 24.5q75 0 110 -45t35 -139v-308h-44v302q0 77 -25.5 113.5t-84.5 36.5q-43 0 -78 -22.5t-79 -67.5v-362h-44zM262 573l-117 144l22 20l114 -125h4l114 125l22 -20l-117 -144h-42z" />
    <glyph glyph-name="napostrophe" unicode="&#x149;" horiz-adv-x="729" 
d="M281 0v480h38l4 -74h3q37 37 76 61.5t89 24.5q75 0 110 -45t35 -139v-308h-44v302q0 77 -25.5 113.5t-84.5 36.5q-43 0 -78 -22.5t-79 -67.5v-362h-44zM76 477l-18 23q33 27 50 54.5t17 69.5q-2 -1 -8 -1q-14 0 -26.5 9t-12.5 28t11 29.5t28 10.5q20 0 32.5 -17.5
t12.5 -49.5q0 -54 -22.5 -92t-63.5 -64z" />
    <glyph glyph-name="uni014A" unicode="&#x14a;" horiz-adv-x="617" 
d="M403 -12q-18 0 -38 3t-34 10l14 43q12 -5 24.5 -8t29.5 -3q23 0 44 15t36.5 50.5t25 93.5t9.5 145q0 85 -14 141t-39 89.5t-59.5 47.5t-75.5 14q-23 0 -48 -8.5t-49.5 -23t-47 -34t-38.5 -40.5v-523h-46v659h46v-88q17 20 39 38t46.5 32t51 22t53.5 8q49 0 91 -17.5
t72.5 -57t48 -103.5t17.5 -156q0 -99 -12.5 -165.5t-34.5 -107.5t-50.5 -58.5t-61.5 -17.5z" />
    <glyph glyph-name="uni014B" unicode="&#x14b;" horiz-adv-x="532" 
d="M339 -181q-17 0 -33.5 3.5t-27.5 8.5l10 36q9 -3 22.5 -6t27.5 -3q40 0 52.5 29t12.5 75v340q0 77 -25.5 113.5t-84.5 36.5q-43 0 -78 -22.5t-79 -67.5v-362h-44v480h38l4 -74h3q37 37 76 61.5t89 24.5q75 0 110 -45t35 -139v-349q0 -71 -25.5 -105.5t-82.5 -34.5z" />
    <glyph glyph-name="Omacron" unicode="&#x14c;" horiz-adv-x="652" 
d="M326 -12q-59 0 -109 24.5t-86 69.5t-56 108.5t-20 141.5t20 140.5t56 107t86 68t109 23.5q60 0 110 -23.5t86 -68t56 -107t20 -140.5t-20 -141.5t-56 -108.5t-86 -69.5t-110 -24.5zM326 30q50 0 91 21.5t70.5 61t45.5 95t16 124.5q0 68 -16 123t-45.5 93.5t-70.5 59.5
t-91 21t-91.5 -21t-70.5 -59.5t-45 -93.5t-16 -123q0 -69 16 -124.5t45 -95t70.5 -61t91.5 -21.5zM202 743v36h248v-36h-248z" />
    <glyph glyph-name="omacron" unicode="&#x14d;" horiz-adv-x="535" 
d="M267 -12q-43 0 -82 17t-68.5 49t-47 78.5t-17.5 106.5t17.5 107.5t47 79.5t68.5 49t82 17t82.5 -17t69 -49t47 -79.5t17.5 -107.5t-17.5 -106.5t-47 -78.5t-69 -49t-82.5 -17zM267 27q36 0 67.5 15.5t54 43.5t35.5 67t13 86q0 48 -13 87t-35.5 67.5t-54 44t-67.5 15.5
t-67 -15.5t-53.5 -44t-35.5 -67.5t-13 -87q0 -47 13 -86t35.5 -67t53.5 -43.5t67 -15.5zM144 606v36h246v-36h-246z" />
    <glyph glyph-name="uni014E" unicode="&#x14e;" horiz-adv-x="652" 
d="M326 -12q-59 0 -109 24.5t-86 69.5t-56 108.5t-20 141.5t20 140.5t56 107t86 68t109 23.5q60 0 110 -23.5t86 -68t56 -107t20 -140.5t-20 -141.5t-56 -108.5t-86 -69.5t-110 -24.5zM326 30q50 0 91 21.5t70.5 61t45.5 95t16 124.5q0 68 -16 123t-45.5 93.5t-70.5 59.5
t-91 21t-91.5 -21t-70.5 -59.5t-45 -93.5t-16 -123q0 -69 16 -124.5t45 -95t70.5 -61t91.5 -21.5zM326 710q-33 0 -57.5 11t-41 29t-25.5 40t-12 44l33 5q3 -19 10 -36t20 -30.5t31 -21.5t42 -8t42 8t31 21.5t20 30.5t10 36l33 -5q-3 -22 -12 -44t-25.5 -40t-41 -29
t-57.5 -11z" />
    <glyph glyph-name="uni014F" unicode="&#x14f;" horiz-adv-x="535" 
d="M267 -12q-43 0 -82 17t-68.5 49t-47 78.5t-17.5 106.5t17.5 107.5t47 79.5t68.5 49t82 17t82.5 -17t69 -49t47 -79.5t17.5 -107.5t-17.5 -106.5t-47 -78.5t-69 -49t-82.5 -17zM267 27q36 0 67.5 15.5t54 43.5t35.5 67t13 86q0 48 -13 87t-35.5 67.5t-54 44t-67.5 15.5
t-67 -15.5t-53.5 -44t-35.5 -67.5t-13 -87q0 -47 13 -86t35.5 -67t53.5 -43.5t67 -15.5zM267 570q-39 0 -66 14t-44.5 35.5t-26.5 47.5t-12 51l33 5q3 -21 11.5 -42t22.5 -38.5t34.5 -28t47.5 -10.5t47.5 10.5t34.5 28t22.5 38.5t11.5 42l33 -5q-3 -25 -12 -51t-26.5 -47.5
t-44.5 -35.5t-66 -14z" />
    <glyph glyph-name="Ohungarumlaut" unicode="&#x150;" horiz-adv-x="652" 
d="M326 -12q-59 0 -109 24.5t-86 69.5t-56 108.5t-20 141.5t20 140.5t56 107t86 68t109 23.5q60 0 110 -23.5t86 -68t56 -107t20 -140.5t-20 -141.5t-56 -108.5t-86 -69.5t-110 -24.5zM326 30q50 0 91 21.5t70.5 61t45.5 95t16 124.5q0 68 -16 123t-45.5 93.5t-70.5 59.5
t-91 21t-91.5 -21t-70.5 -59.5t-45 -93.5t-16 -123q0 -69 16 -124.5t45 -95t70.5 -61t91.5 -21.5zM243 721l88 148l34 -21l-96 -140zM387 721l88 148l34 -21l-96 -140z" />
    <glyph glyph-name="ohungarumlaut" unicode="&#x151;" horiz-adv-x="535" 
d="M267 -12q-43 0 -82 17t-68.5 49t-47 78.5t-17.5 106.5t17.5 107.5t47 79.5t68.5 49t82 17t82.5 -17t69 -49t47 -79.5t17.5 -107.5t-17.5 -106.5t-47 -78.5t-69 -49t-82.5 -17zM267 27q36 0 67.5 15.5t54 43.5t35.5 67t13 86q0 48 -13 87t-35.5 67.5t-54 44t-67.5 15.5
t-67 -15.5t-53.5 -44t-35.5 -67.5t-13 -87q0 -47 13 -86t35.5 -67t53.5 -43.5t67 -15.5zM217 569l-27 13l86 168l35 -19zM351 569l-27 13l86 168l35 -19z" />
    <glyph glyph-name="OE" unicode="&#x152;" horiz-adv-x="833" 
d="M367 0q-78 0 -136.5 23.5t-97.5 67t-58.5 105t-19.5 136.5t19.5 135t59 103t98 66t136.5 23h408v-40h-295v-249h245v-40h-245v-290h305v-40h-419zM372 39h63v581h-63q-69 0 -119.5 -21t-84 -58.5t-49.5 -91t-16 -117.5q0 -65 16 -118.5t49.5 -92.5t84 -60.5t119.5 -21.5z
" />
    <glyph glyph-name="oe" unicode="&#x153;" horiz-adv-x="848" 
d="M263 -12q-42 0 -80 17t-67.5 49t-46.5 78.5t-17 106.5t17 107.5t46.5 79.5t67.5 49t80 17q58 0 109 -35.5t77 -106.5q26 66 73.5 104t105.5 38q85 0 134 -58t49 -164q0 -18 -3 -36h-337q0 -45 13.5 -83t36.5 -65.5t55 -43t68 -15.5q39 0 70 11.5t58 31.5l19 -35
q-29 -17 -63.5 -32t-88.5 -15q-63 0 -113 38t-76 103q-28 -70 -76 -105.5t-111 -35.5zM263 27q36 0 66.5 15.5t52 43.5t34 67t12.5 86q0 48 -12.5 87t-34 67.5t-52 44t-66.5 15.5q-35 0 -65.5 -15.5t-52.5 -44t-34.5 -67.5t-12.5 -87q0 -47 12.5 -86t34.5 -67t52.5 -43.5
t65.5 -15.5zM471 268h298q0 93 -38.5 139.5t-102.5 46.5q-30 0 -57 -13.5t-48 -38t-34.5 -59t-17.5 -75.5z" />
    <glyph glyph-name="Racute" unicode="&#x154;" horiz-adv-x="544" 
d="M97 0v659h189q49 0 89 -9.5t68 -30.5t43.5 -54t15.5 -80q0 -79 -45.5 -124t-123.5 -55l182 -306h-53l-179 303h-140v-303h-46zM143 341h131q88 0 134.5 35.5t46.5 108.5q0 74 -47 104.5t-134 30.5h-131v-279zM256 706l-20 23l125 123l28 -33z" />
    <glyph glyph-name="racute" unicode="&#x155;" horiz-adv-x="317" 
d="M92 0v480h38l4 -89h3q24 45 58.5 73t77.5 28q14 0 25 -2t23 -8l-10 -40q-12 5 -21 6.5t-23 1.5q-32 0 -67.5 -27.5t-63.5 -95.5v-327h-44zM171 574l-24 23l134 157l34 -29z" />
    <glyph glyph-name="uni0156" unicode="&#x156;" horiz-adv-x="544" 
d="M97 0v659h189q49 0 89 -9.5t68 -30.5t43.5 -54t15.5 -80q0 -79 -45.5 -124t-123.5 -55l182 -306h-53l-179 303h-140v-303h-46zM143 341h131q88 0 134.5 35.5t46.5 108.5q0 74 -47 104.5t-134 30.5h-131v-279zM214 -219l-7 30q65 4 89 17t24 35q0 23 -20.5 33.5
t-56.5 13.5l13 29q57 -8 80 -24.5t23 -48.5q0 -39 -37 -59.5t-108 -25.5z" />
    <glyph glyph-name="uni0157" unicode="&#x157;" horiz-adv-x="317" 
d="M92 0v480h38l4 -89h3q24 45 58.5 73t77.5 28q14 0 25 -2t23 -8l-10 -40q-12 5 -21 6.5t-23 1.5q-32 0 -67.5 -27.5t-63.5 -95.5v-327h-44zM34 -219l-7 30q65 4 89 17t24 35q0 23 -20.5 33.5t-56.5 13.5l13 29q57 -8 80 -24.5t23 -48.5q0 -39 -37 -59.5t-108 -25.5z" />
    <glyph glyph-name="Rcaron" unicode="&#x158;" horiz-adv-x="544" 
d="M97 0v659h189q49 0 89 -9.5t68 -30.5t43.5 -54t15.5 -80q0 -79 -45.5 -124t-123.5 -55l182 -306h-53l-179 303h-140v-303h-46zM143 341h131q88 0 134.5 35.5t46.5 108.5q0 74 -47 104.5t-134 30.5h-131v-279zM255 709l-113 114l20 18l113 -98h4l113 98l20 -18l-113 -114
h-44z" />
    <glyph glyph-name="rcaron" unicode="&#x159;" horiz-adv-x="317" 
d="M92 0v480h38l4 -89h3q24 45 58.5 73t77.5 28q14 0 25 -2t23 -8l-10 -40q-12 5 -21 6.5t-23 1.5q-32 0 -67.5 -27.5t-63.5 -95.5v-327h-44zM179 573l-117 144l22 20l114 -125h4l114 125l22 -20l-117 -144h-42z" />
    <glyph glyph-name="Sacute" unicode="&#x15a;" horiz-adv-x="521" 
d="M269 -12q-72 0 -128 27.5t-95 71.5l30 32q36 -41 86 -65t107 -24q76 0 120 36.5t44 95.5q0 31 -9.5 52.5t-25.5 37t-37.5 26.5t-45.5 22l-100 45q-21 9 -45 22t-43.5 32.5t-32.5 46t-13 63.5q0 36 14.5 65.5t40 51t61 33.5t76.5 12q60 0 106.5 -23.5t76.5 -55.5l-26 -30
q-29 30 -68 48.5t-89 18.5q-66 0 -106 -32t-40 -86q0 -29 11 -49t28 -34.5t37 -25t38 -18.5l100 -44q28 -12 53 -27t44 -35t30.5 -47.5t11.5 -65.5t-15 -70.5t-42.5 -56t-66.5 -37t-87 -13.5zM250 706l-20 23l125 123l28 -33z" />
    <glyph glyph-name="sacute" unicode="&#x15b;" horiz-adv-x="405" 
d="M208 -12q-54 0 -99 19.5t-77 46.5l26 33q31 -26 66 -43.5t87 -17.5q57 0 85.5 28.5t28.5 66.5q0 22 -10.5 39t-27.5 29t-37.5 21t-41.5 17q-27 10 -54.5 21t-49.5 26.5t-35.5 37t-13.5 52.5q0 26 10 49.5t30 41t48.5 27.5t66.5 10t74.5 -14t62.5 -36l-24 -31
q-24 18 -51 30.5t-64 12.5q-28 0 -48 -7.5t-33.5 -19.5t-20 -28t-6.5 -32q0 -21 9.5 -35.5t25.5 -25.5t36.5 -19.5t41.5 -16.5l56 -22t50.5 -27t36.5 -39.5t14 -58.5q0 -27 -10.5 -51.5t-31.5 -43t-51 -29.5t-69 -11zM181 574l-24 23l134 157l34 -29z" />
    <glyph glyph-name="Scircumflex" unicode="&#x15c;" horiz-adv-x="521" 
d="M269 -12q-72 0 -128 27.5t-95 71.5l30 32q36 -41 86 -65t107 -24q76 0 120 36.5t44 95.5q0 31 -9.5 52.5t-25.5 37t-37.5 26.5t-45.5 22l-100 45q-21 9 -45 22t-43.5 32.5t-32.5 46t-13 63.5q0 36 14.5 65.5t40 51t61 33.5t76.5 12q60 0 106.5 -23.5t76.5 -55.5l-26 -30
q-29 30 -68 48.5t-89 18.5q-66 0 -106 -32t-40 -86q0 -29 11 -49t28 -34.5t37 -25t38 -18.5l100 -44q28 -12 53 -27t44 -35t30.5 -47.5t11.5 -65.5t-15 -70.5t-42.5 -56t-66.5 -37t-87 -13.5zM136 726l113 113h44l113 -113l-20 -19l-113 98h-4l-113 -98z" />
    <glyph glyph-name="scircumflex" unicode="&#x15d;" horiz-adv-x="405" 
d="M208 -12q-54 0 -99 19.5t-77 46.5l26 33q31 -26 66 -43.5t87 -17.5q57 0 85.5 28.5t28.5 66.5q0 22 -10.5 39t-27.5 29t-37.5 21t-41.5 17q-27 10 -54.5 21t-49.5 26.5t-35.5 37t-13.5 52.5q0 26 10 49.5t30 41t48.5 27.5t66.5 10t74.5 -14t62.5 -36l-24 -31
q-24 18 -51 30.5t-64 12.5q-28 0 -48 -7.5t-33.5 -19.5t-20 -28t-6.5 -32q0 -21 9.5 -35.5t25.5 -25.5t36.5 -19.5t41.5 -16.5l56 -22t50.5 -27t36.5 -39.5t14 -58.5q0 -27 -10.5 -51.5t-31.5 -43t-51 -29.5t-69 -11zM72 593l117 144h42l117 -144l-22 -21l-114 126h-4
l-114 -126z" />
    <glyph glyph-name="uni015E" unicode="&#x15e;" horiz-adv-x="521" 
d="M269 -12q-72 0 -128 27.5t-95 71.5l30 32q36 -41 86 -65t107 -24q76 0 120 36.5t44 95.5q0 31 -9.5 52.5t-25.5 37t-37.5 26.5t-45.5 22l-100 45q-21 9 -45 22t-43.5 32.5t-32.5 46t-13 63.5q0 36 14.5 65.5t40 51t61 33.5t76.5 12q60 0 106.5 -23.5t76.5 -55.5l-26 -30
q-29 30 -68 48.5t-89 18.5q-66 0 -106 -32t-40 -86q0 -29 11 -49t28 -34.5t37 -25t38 -18.5l100 -44q28 -12 53 -27t44 -35t30.5 -47.5t11.5 -65.5t-15 -70.5t-42.5 -56t-66.5 -37t-87 -13.5zM191 -219l-7 30q65 4 89 17t24 36q0 22 -18 33.5t-60 17.5l41 87h35l-30 -67
q32 -8 51.5 -23.5t19.5 -45.5q0 -39 -37 -59.5t-108 -25.5z" />
    <glyph glyph-name="uni015F" unicode="&#x15f;" horiz-adv-x="405" 
d="M208 -12q-54 0 -99 19.5t-77 46.5l26 33q31 -26 66 -43.5t87 -17.5q57 0 85.5 28.5t28.5 66.5q0 22 -10.5 39t-27.5 29t-37.5 21t-41.5 17q-27 10 -54.5 21t-49.5 26.5t-35.5 37t-13.5 52.5q0 26 10 49.5t30 41t48.5 27.5t66.5 10t74.5 -14t62.5 -36l-24 -31
q-24 18 -51 30.5t-64 12.5q-28 0 -48 -7.5t-33.5 -19.5t-20 -28t-6.5 -32q0 -21 9.5 -35.5t25.5 -25.5t36.5 -19.5t41.5 -16.5l56 -22t50.5 -27t36.5 -39.5t14 -58.5q0 -27 -10.5 -51.5t-31.5 -43t-51 -29.5t-69 -11zM137 -219l-7 30q65 4 89 17t24 36q0 22 -18 33.5
t-60 17.5l41 87h35l-30 -67q32 -8 51.5 -23.5t19.5 -45.5q0 -39 -37 -59.5t-108 -25.5z" />
    <glyph glyph-name="Scaron" unicode="&#x160;" horiz-adv-x="521" 
d="M269 -12q-72 0 -128 27.5t-95 71.5l30 32q36 -41 86 -65t107 -24q76 0 120 36.5t44 95.5q0 31 -9.5 52.5t-25.5 37t-37.5 26.5t-45.5 22l-100 45q-21 9 -45 22t-43.5 32.5t-32.5 46t-13 63.5q0 36 14.5 65.5t40 51t61 33.5t76.5 12q60 0 106.5 -23.5t76.5 -55.5l-26 -30
q-29 30 -68 48.5t-89 18.5q-66 0 -106 -32t-40 -86q0 -29 11 -49t28 -34.5t37 -25t38 -18.5l100 -44q28 -12 53 -27t44 -35t30.5 -47.5t11.5 -65.5t-15 -70.5t-42.5 -56t-66.5 -37t-87 -13.5zM249 709l-113 114l20 18l113 -98h4l113 98l20 -18l-113 -114h-44z" />
    <glyph glyph-name="scaron" unicode="&#x161;" horiz-adv-x="405" 
d="M208 -12q-54 0 -99 19.5t-77 46.5l26 33q31 -26 66 -43.5t87 -17.5q57 0 85.5 28.5t28.5 66.5q0 22 -10.5 39t-27.5 29t-37.5 21t-41.5 17q-27 10 -54.5 21t-49.5 26.5t-35.5 37t-13.5 52.5q0 26 10 49.5t30 41t48.5 27.5t66.5 10t74.5 -14t62.5 -36l-24 -31
q-24 18 -51 30.5t-64 12.5q-28 0 -48 -7.5t-33.5 -19.5t-20 -28t-6.5 -32q0 -21 9.5 -35.5t25.5 -25.5t36.5 -19.5t41.5 -16.5l56 -22t50.5 -27t36.5 -39.5t14 -58.5q0 -27 -10.5 -51.5t-31.5 -43t-51 -29.5t-69 -11zM189 573l-117 144l22 20l114 -125h4l114 125l22 -20
l-117 -144h-42z" />
    <glyph glyph-name="uni0162" unicode="&#x162;" horiz-adv-x="524" 
d="M239 0v619h-210v40h466v-40h-210v-619h-46zM178 -219l-7 30q65 4 89 17t24 36q0 22 -18 33.5t-60 17.5l41 87h35l-30 -67q32 -8 51.5 -23.5t19.5 -45.5q0 -39 -37 -59.5t-108 -25.5z" />
    <glyph glyph-name="uni0163" unicode="&#x163;" horiz-adv-x="312" 
d="M223 -12q-35 0 -58 10.5t-37 29.5t-19.5 46t-5.5 59v309h-75v34l76 4l6 139h38v-139h139v-38h-139v-313q0 -23 3.5 -41.5t12.5 -32t24.5 -21t40.5 -7.5q14 0 30.5 4.5t29.5 10.5l12 -36q-21 -8 -42 -13t-36 -5zM125 -219l-7 30q65 4 89 17t24 36q0 22 -18 33.5t-60 17.5
l41 87h35l-30 -67q32 -8 51.5 -23.5t19.5 -45.5q0 -39 -37 -59.5t-108 -25.5z" />
    <glyph glyph-name="Tcaron" unicode="&#x164;" horiz-adv-x="524" 
d="M239 0v619h-210v40h466v-40h-210v-619h-46zM239 709l-113 114l20 18l113 -98h4l113 98l20 -18l-113 -114h-44z" />
    <glyph glyph-name="tcaron" unicode="&#x165;" horiz-adv-x="312" 
d="M223 -12q-35 0 -58 10.5t-37 29.5t-19.5 46t-5.5 59v309h-75v34l76 4l6 139h38v-139h139v-38h-139v-313q0 -23 3.5 -41.5t12.5 -32t24.5 -21t40.5 -7.5q14 0 30.5 4.5t29.5 10.5l12 -36q-21 -8 -42 -13t-36 -5zM243 548l-3 206h38v-50l-8 -156h-27z" />
    <glyph glyph-name="uni0166" unicode="&#x166;" horiz-adv-x="524" 
d="M239 0v330h-127v31l86 2h41v256h-210v40h466v-40h-210v-256h127v-33h-127v-330h-46z" />
    <glyph glyph-name="uni0167" unicode="&#x167;" horiz-adv-x="312" 
d="M28 236v29l75 4v173h-75v34l76 4l6 139h38v-139h139v-38h-139v-173h139v-33h-139v-107q0 -23 3.5 -41.5t12.5 -32t24.5 -21t40.5 -7.5q14 0 30.5 4.5t29.5 10.5l12 -36q-21 -8 -42 -13t-36 -5q-35 0 -58 10.5t-37 29.5t-19.5 46t-5.5 59v103h-75z" />
    <glyph glyph-name="Utilde" unicode="&#x168;" horiz-adv-x="634" 
d="M316 -12q-42 0 -82 12.5t-71 43t-49.5 81.5t-18.5 128v406h46v-401q0 -66 14.5 -109.5t38.5 -70t55.5 -37.5t66.5 -11q36 0 68.5 11t57 37.5t39.5 70t15 109.5v401h43v-406q0 -77 -19 -128t-50 -81.5t-71 -43t-83 -12.5zM394 718q-29 0 -49 12.5t-36.5 27t-32 27
t-36.5 12.5q-22 0 -37 -20.5t-18 -55.5l-33 3q2 47 24.5 78.5t63.5 31.5q29 0 49 -12.5t36.5 -27t32 -27t36.5 -12.5q22 0 36 21t19 56l33 -3q-2 -47 -24.5 -79t-63.5 -32z" />
    <glyph glyph-name="utilde" unicode="&#x169;" horiz-adv-x="529" 
d="M230 -12q-75 0 -110 45t-35 139v308h44v-302q0 -77 25.5 -113.5t83.5 -36.5q43 0 78 23.5t77 74.5v354h44v-480h-37l-5 80h-2q-35 -42 -74 -67t-89 -25zM340 579q-29 0 -48.5 15t-35.5 33t-31.5 33t-36.5 15q-27 0 -39.5 -27t-14.5 -66l-34 2q1 24 6 46.5t15.5 40
t27 28.5t40.5 11q28 0 47.5 -15t35.5 -33t32 -33t37 -15q26 0 38.5 27.5t14.5 65.5l34 -2q-2 -23 -6.5 -45.5t-15 -40.5t-26.5 -29t-40 -11z" />
    <glyph glyph-name="Umacron" unicode="&#x16a;" horiz-adv-x="634" 
d="M316 -12q-42 0 -82 12.5t-71 43t-49.5 81.5t-18.5 128v406h46v-401q0 -66 14.5 -109.5t38.5 -70t55.5 -37.5t66.5 -11q36 0 68.5 11t57 37.5t39.5 70t15 109.5v401h43v-406q0 -77 -19 -128t-50 -81.5t-71 -43t-83 -12.5zM193 743v36h248v-36h-248z" />
    <glyph glyph-name="umacron" unicode="&#x16b;" horiz-adv-x="529" 
d="M230 -12q-75 0 -110 45t-35 139v308h44v-302q0 -77 25.5 -113.5t83.5 -36.5q43 0 78 23.5t77 74.5v354h44v-480h-37l-5 80h-2q-35 -42 -74 -67t-89 -25zM137 606v36h246v-36h-246z" />
    <glyph glyph-name="Ubreve" unicode="&#x16c;" horiz-adv-x="634" 
d="M316 -12q-42 0 -82 12.5t-71 43t-49.5 81.5t-18.5 128v406h46v-401q0 -66 14.5 -109.5t38.5 -70t55.5 -37.5t66.5 -11q36 0 68.5 11t57 37.5t39.5 70t15 109.5v401h43v-406q0 -77 -19 -128t-50 -81.5t-71 -43t-83 -12.5zM317 710q-33 0 -57.5 11t-41 29t-25.5 40t-12 44
l33 5q3 -19 10 -36t20 -30.5t31 -21.5t42 -8t42 8t31 21.5t20 30.5t10 36l33 -5q-3 -22 -12 -44t-25.5 -40t-41 -29t-57.5 -11z" />
    <glyph glyph-name="ubreve" unicode="&#x16d;" horiz-adv-x="529" 
d="M230 -12q-75 0 -110 45t-35 139v308h44v-302q0 -77 25.5 -113.5t83.5 -36.5q43 0 78 23.5t77 74.5v354h44v-480h-37l-5 80h-2q-35 -42 -74 -67t-89 -25zM264 570q-39 0 -66 14t-44.5 35.5t-26.5 47.5t-12 51l33 5q3 -21 11.5 -42t22.5 -38.5t34.5 -28t47.5 -10.5
t47.5 10.5t34.5 28t22.5 38.5t11.5 42l33 -5q-3 -25 -12 -51t-26.5 -47.5t-44.5 -35.5t-66 -14z" />
    <glyph glyph-name="Uring" unicode="&#x16e;" horiz-adv-x="634" 
d="M316 -12q-42 0 -82 12.5t-71 43t-49.5 81.5t-18.5 128v406h46v-401q0 -66 14.5 -109.5t38.5 -70t55.5 -37.5t66.5 -11q36 0 68.5 11t57 37.5t39.5 70t15 109.5v401h43v-406q0 -77 -19 -128t-50 -81.5t-71 -43t-83 -12.5zM317 700q-38 0 -63 23.5t-25 61.5q0 40 25 63
t63 23q36 0 62 -23t26 -63q0 -38 -26 -61.5t-62 -23.5zM317 726q23 0 39.5 15t16.5 44t-16.5 44.5t-39.5 15.5q-24 0 -41 -15.5t-17 -44.5t17 -44t41 -15z" />
    <glyph glyph-name="uring" unicode="&#x16f;" horiz-adv-x="529" 
d="M230 -12q-75 0 -110 45t-35 139v308h44v-302q0 -77 25.5 -113.5t83.5 -36.5q43 0 78 23.5t77 74.5v354h44v-480h-37l-5 80h-2q-35 -42 -74 -67t-89 -25zM264 548q-42 0 -69.5 26.5t-27.5 68.5q0 43 27.5 69.5t69.5 26.5t69.5 -26.5t27.5 -69.5q0 -42 -27.5 -68.5
t-69.5 -26.5zM264 574q27 0 46 18.5t19 50.5t-19 51t-46 19t-46 -19t-19 -51t19 -50.5t46 -18.5z" />
    <glyph glyph-name="Uhungarumlaut" unicode="&#x170;" horiz-adv-x="634" 
d="M316 -12q-42 0 -82 12.5t-71 43t-49.5 81.5t-18.5 128v406h46v-401q0 -66 14.5 -109.5t38.5 -70t55.5 -37.5t66.5 -11q36 0 68.5 11t57 37.5t39.5 70t15 109.5v401h43v-406q0 -77 -19 -128t-50 -81.5t-71 -43t-83 -12.5zM234 721l88 148l34 -21l-96 -140zM378 721l88 148
l34 -21l-96 -140z" />
    <glyph glyph-name="uhungarumlaut" unicode="&#x171;" horiz-adv-x="529" 
d="M230 -12q-75 0 -110 45t-35 139v308h44v-302q0 -77 25.5 -113.5t83.5 -36.5q43 0 78 23.5t77 74.5v354h44v-480h-37l-5 80h-2q-35 -42 -74 -67t-89 -25zM214 569l-27 13l86 168l35 -19zM348 569l-27 13l86 168l35 -19z" />
    <glyph glyph-name="Uogonek" unicode="&#x172;" horiz-adv-x="634" 
d="M346 -205q-35 0 -60 20t-25 62q0 19 6 35t15 29t20.5 24.5l22.5 22.5q-48 0 -90 13t-73 44t-49 82t-18 126v406h46v-401q0 -66 14.5 -109.5t38.5 -70t55.5 -37.5t66.5 -11q36 0 68.5 11t57 37.5t39.5 70t15 109.5v401h43v-406q0 -65 -12.5 -108t-34 -72t-49.5 -47.5
t-58 -33.5q-40 -20 -62 -51t-22 -57t15.5 -39t35.5 -13q23 0 43 14l16 -27q-11 -10 -30 -17t-35 -7z" />
    <glyph glyph-name="uogonek" unicode="&#x173;" horiz-adv-x="529" 
d="M394 -203q-35 0 -58 20t-23 61q0 38 24 69t63 60l-5 73h-2q-35 -42 -74 -67t-89 -25q-75 0 -110 45t-35 139v308h44v-302q0 -77 25 -113.5t84 -36.5q43 0 78 23.5t77 74.5v354h44v-480q-42 -26 -64 -55t-22 -61q0 -26 15 -39t34 -13q25 0 43 14l16 -26q-11 -10 -30 -16.5
t-35 -6.5z" />
    <glyph glyph-name="Wcircumflex" unicode="&#x174;" horiz-adv-x="770" 
d="M178 0l-150 659h48l83 -388q11 -54 22.5 -107.5t22.5 -107.5h4q12 54 24.5 107.5t26.5 107.5l103 388h47l103 -388q14 -54 26.5 -107.5t26.5 -107.5h4q11 54 21.5 107.5t21.5 107.5l83 388h45l-147 -659h-51l-120 452q-9 39 -18 74.5t-17 74.5h-4q-8 -39 -18 -74.5
t-19 -74.5l-118 -452h-50zM250 726l113 113h44l113 -113l-20 -19l-113 98h-4l-113 -98z" />
    <glyph glyph-name="wcircumflex" unicode="&#x175;" horiz-adv-x="685" 
d="M166 0l-142 480h48l86 -311q9 -33 17 -64.5t16 -63.5h4q8 32 17 63.5t18 64.5l87 311h53l87 -311q9 -33 18 -64.5t18 -63.5h4q8 32 17 63.5t17 64.5l85 311h45l-138 -480h-58l-84 298q-11 35 -18.5 68.5t-18.5 68.5h-4q-8 -35 -17.5 -69.5t-20.5 -69.5l-83 -296h-53z
M205 593l117 144h42l117 -144l-22 -21l-114 126h-4l-114 -126z" />
    <glyph glyph-name="Ycircumflex" unicode="&#x176;" horiz-adv-x="447" 
d="M200 0v267l-197 392h49l100 -206q17 -36 33.5 -71t36.5 -71h4q19 36 37 71t34 71l100 206h47l-198 -392v-267h-46zM88 726l113 113h44l113 -113l-20 -19l-113 98h-4l-113 -98z" />
    <glyph glyph-name="ycircumflex" unicode="&#x177;" horiz-adv-x="436" 
d="M73 -219q-27 0 -49 10l10 39q8 -3 18 -5.5t21 -2.5q45 0 75 36t48 91l13 42l-197 489h48l116 -302q11 -30 24.5 -66t27.5 -68h4q11 32 22.5 68t21.5 66l103 302h45l-190 -540q-10 -30 -24.5 -59t-34 -51t-45 -35.5t-57.5 -13.5zM91 593l117 144h42l117 -144l-22 -21
l-114 126h-4l-114 -126z" />
    <glyph glyph-name="Ydieresis" unicode="&#x178;" horiz-adv-x="447" 
d="M200 0v267l-197 392h49l100 -206q17 -36 33.5 -71t36.5 -71h4q19 36 37 71t34 71l100 206h47l-198 -392v-267h-46zM125 725q-16 0 -26 9.5t-10 26.5t10 27t26 10t26.5 -10t10.5 -27t-10.5 -26.5t-26.5 -9.5zM321 725q-16 0 -26.5 9.5t-10.5 26.5t10.5 27t26.5 10t26 -10
t10 -27t-10 -26.5t-26 -9.5z" />
    <glyph glyph-name="Zacute" unicode="&#x179;" horiz-adv-x="538" 
d="M50 0v27l379 592h-346v40h404v-27l-380 -592h383v-40h-440zM258 706l-20 23l125 123l28 -33z" />
    <glyph glyph-name="zacute" unicode="&#x17a;" horiz-adv-x="404" 
d="M27 0v24l284 418h-253v38h310v-23l-283 -418h293v-39h-351zM190 574l-24 23l134 157l34 -29z" />
    <glyph glyph-name="Zdotaccent" unicode="&#x17b;" horiz-adv-x="538" 
d="M50 0v27l379 592h-346v40h404v-27l-380 -592h383v-40h-440zM279 721q-17 0 -28.5 11t-11.5 30q0 17 11.5 28t28.5 11t28.5 -11t11.5 -28q0 -19 -11.5 -30t-28.5 -11z" />
    <glyph glyph-name="zdotaccent" unicode="&#x17c;" horiz-adv-x="404" 
d="M27 0v24l284 418h-253v38h310v-23l-283 -418h293v-39h-351zM219 596q-17 0 -27.5 11t-10.5 30q0 17 10.5 28t27.5 11t27.5 -11t10.5 -28q0 -19 -10.5 -30t-27.5 -11z" />
    <glyph glyph-name="Zcaron" unicode="&#x17d;" horiz-adv-x="538" 
d="M50 0v27l379 592h-346v40h404v-27l-380 -592h383v-40h-440zM257 709l-113 114l20 18l113 -98h4l113 98l20 -18l-113 -114h-44z" />
    <glyph glyph-name="zcaron" unicode="&#x17e;" horiz-adv-x="404" 
d="M27 0v24l284 418h-253v38h310v-23l-283 -418h293v-39h-351zM198 573l-117 144l22 20l114 -125h4l114 125l22 -20l-117 -144h-42z" />
    <glyph glyph-name="uni0180" unicode="&#x180;" horiz-adv-x="528" 
d="M280 -12q-35 0 -72.5 16.5t-71.5 44.5h-2l-5 -49h-37v581h-77v29l77 4v105h44v-105h190v-33h-190v-104l-2 -94q37 31 79 53t87 22q96 0 144 -62t48 -165q0 -57 -17 -102.5t-46.5 -76.5t-68 -47.5t-80.5 -16.5zM278 27q36 0 67 15t53 42t34.5 64t12.5 82q0 40 -8.5 74.5
t-26.5 60t-47 40t-70 14.5q-36 0 -75 -20.5t-82 -58.5v-251q40 -34 77 -48t65 -14z" />
    <glyph glyph-name="uni018F" unicode="&#x18f;" horiz-adv-x="648" 
d="M322 -12q-62 0 -110.5 25t-81.5 69.5t-50.5 106.5t-17.5 137q0 2 0.5 5t0.5 6h484q-2 141 -58 218t-163 77q-51 0 -95 -18.5t-76 -48.5l-24 31q33 32 82.5 53.5t112.5 21.5q128 0 197.5 -88t69.5 -252q0 -81 -19 -144.5t-54.5 -108t-85.5 -67.5t-112 -23zM322 27
q100 0 158.5 71.5t65.5 200.5h-437q1 -62 17.5 -112.5t44 -86t66 -54.5t85.5 -19z" />
    <glyph glyph-name="uni0192" unicode="&#x192;" horiz-adv-x="479" 
d="M76 -98q-38 0 -65 16l13 34q24 -11 52 -11q27 0 45.5 12.5t31.5 34.5t20 52t11 66l28 262h-95v33l67 4h32l7 63q10 94 44 148.5t102 54.5q25 0 42.5 -6t31.5 -12l-12 -36q-12 5 -26.5 10t-35.5 5q-26 0 -44 -13.5t-29.5 -36t-18.5 -51.5t-10 -59l-7 -67h138v-37h-142
l-29 -266q-5 -46 -15.5 -83t-28.5 -63t-44.5 -40t-62.5 -14z" />
    <glyph glyph-name="uni0193" unicode="&#x193;" horiz-adv-x="605" 
d="M338 -12q-64 0 -116 24t-89 68.5t-57.5 108t-20.5 142.5q0 78 21 141t59 107.5t92 68t119 23.5q37 0 66.5 -6.5t52.5 -16.5q-14 28 -14 58q0 42 27.5 65.5t67.5 23.5q14 0 26 -3.5t23 -8.5l-10 -36q-8 3 -17 6.5t-20 3.5q-28 0 -42 -17.5t-14 -39.5q0 -24 7.5 -42.5
t26.5 -46.5l-27 -31q-26 20 -62 34.5t-90 14.5q-57 0 -102 -21t-76.5 -59.5t-48.5 -93.5t-17 -124t16 -124.5t46.5 -94.5t75 -60.5t100.5 -21.5q45 0 84.5 13t63.5 37v205h-158v39h202v-261q-31 -33 -80.5 -54t-114.5 -21z" />
    <glyph glyph-name="Ohorn" unicode="&#x1a0;" horiz-adv-x="652" 
d="M330 -12q-59 0 -109 24.5t-86 69.5t-56 108.5t-20 141.5t20 140.5t56 107t86 68t109 23.5q69 0 125 -32q94 16 94 88q0 12 -3 26.5t-11 27.5l39 19q20 -34 20 -70q0 -48 -29 -76t-74 -40q52 -43 81.5 -114.5t29.5 -167.5q0 -78 -20 -141.5t-56 -108.5t-86 -69.5
t-110 -24.5zM330 30q50 0 91 21.5t70.5 61t45.5 95t16 124.5q0 68 -16 123t-45.5 93.5t-70.5 59.5t-91 21t-91.5 -21t-70.5 -59.5t-45 -93.5t-16 -123q0 -69 16 -124.5t45 -95t70.5 -61t91.5 -21.5z" />
    <glyph glyph-name="ohorn" unicode="&#x1a1;" horiz-adv-x="535" 
d="M267 -12q-43 0 -82 17t-68.5 49t-47 78.5t-17.5 106.5t17.5 107.5t47 79.5t68.5 49t82 17q50 0 92 -21q99 15 99 98q0 12 -3.5 26t-10.5 27l37 20q9 -17 14.5 -34.5t5.5 -35.5q0 -28 -9 -49t-24 -36t-34 -24.5t-38 -15.5q39 -32 63 -84t24 -124q0 -60 -17.5 -106.5
t-47 -78.5t-69 -49t-82.5 -17zM267 27q36 0 67.5 15.5t54 43.5t35.5 67t13 86q0 48 -13 87t-35.5 67.5t-54 44t-67.5 15.5t-67 -15.5t-53.5 -44t-35.5 -67.5t-13 -87q0 -47 13 -86t35.5 -67t53.5 -43.5t67 -15.5z" />
    <glyph glyph-name="Uhorn" unicode="&#x1af;" horiz-adv-x="645" 
d="M316 -12q-42 0 -82 12.5t-71 43t-49.5 81.5t-18.5 128v406h46v-401q0 -66 14.5 -109.5t38.5 -70t55.5 -37.5t66.5 -11q36 0 68.5 11t57 37.5t39.5 70t15 109.5v401h10q48 7 71 27.5t23 60.5q0 12 -3 26.5t-11 27.5l40 19q19 -35 19 -70q0 -27 -9 -47t-24 -33.5t-34 -22.5
t-39 -14v-380q0 -77 -19 -128t-50 -81.5t-71 -43t-83 -12.5z" />
    <glyph glyph-name="uhorn" unicode="&#x1b0;" horiz-adv-x="529" 
d="M437 457v-457h-37l-5 80h-2q-35 -42 -74 -67t-89 -25q-75 0 -110 45t-35 139v308h44v-302q0 -77 25.5 -113.5t83.5 -36.5q43 0 78 23.5t77 74.5v354h7q39 8 62.5 31t23.5 68q0 12 -3.5 26t-10.5 27l37 20q20 -34 20 -70q0 -30 -9 -51.5t-22.5 -36t-29.5 -23.5t-31 -14z
" />
    <glyph glyph-name="uni01C2" unicode="&#x1c2;" horiz-adv-x="263" 
d="M6 332v29l78 4h36v385h36v-385h101v-33h-101v-123h101v-33h-101v-426h-36v426h-114v29l78 4h36v123h-114z" />
    <glyph glyph-name="uni01CD" unicode="&#x1cd;" horiz-adv-x="526" 
d="M188 388l-42 -123h234l-42 123q-20 59 -38 113t-35 115h-4q-17 -61 -35 -115t-38 -113zM8 0l232 659h46l232 -659h-48l-77 226h-261l-78 -226h-46zM241 709l-113 114l20 18l113 -98h4l113 98l20 -18l-113 -114h-44z" />
    <glyph glyph-name="uni01CE" unicode="&#x1ce;" horiz-adv-x="491" 
d="M197 -12q-29 0 -54 8t-44 24t-30 41t-11 59q0 80 74.5 121.5t235.5 59.5q0 27 -4 54.5t-17 49t-35 35t-58 13.5q-48 0 -88 -19t-65 -37l-20 33q13 9 31.5 20t41.5 20t50 15.5t56 6.5q42 0 71 -14.5t47 -39.5t26 -58.5t8 -72.5v-307h-38l-4 62h-3q-37 -29 -79.5 -51.5
t-90.5 -22.5zM205 26q42 0 80 20t83 58v163q-74 -9 -125 -22t-82 -31t-44.5 -41t-13.5 -51q0 -26 8 -44t22 -29.5t32.5 -17t39.5 -5.5zM233 573l-117 144l22 20l114 -125h4l114 125l22 -20l-117 -144h-42z" />
    <glyph glyph-name="uni01CF" unicode="&#x1cf;" horiz-adv-x="240" 
d="M97 0v659h46v-659h-46zM98 709l-113 114l20 18l113 -98h4l113 98l20 -18l-113 -114h-44z" />
    <glyph glyph-name="uni01D0" unicode="&#x1d0;" horiz-adv-x="229" 
d="M92 0v480h44v-480h-44zM93 573l-117 144l22 20l114 -125h4l114 125l22 -20l-117 -144h-42z" />
    <glyph glyph-name="uni01D1" unicode="&#x1d1;" horiz-adv-x="652" 
d="M326 -12q-59 0 -109 24.5t-86 69.5t-56 108.5t-20 141.5t20 140.5t56 107t86 68t109 23.5q60 0 110 -23.5t86 -68t56 -107t20 -140.5t-20 -141.5t-56 -108.5t-86 -69.5t-110 -24.5zM326 30q50 0 91 21.5t70.5 61t45.5 95t16 124.5q0 68 -16 123t-45.5 93.5t-70.5 59.5
t-91 21t-91.5 -21t-70.5 -59.5t-45 -93.5t-16 -123q0 -69 16 -124.5t45 -95t70.5 -61t91.5 -21.5zM304 709l-113 114l20 18l113 -98h4l113 98l20 -18l-113 -114h-44z" />
    <glyph glyph-name="uni01D2" unicode="&#x1d2;" horiz-adv-x="535" 
d="M267 -12q-43 0 -82 17t-68.5 49t-47 78.5t-17.5 106.5t17.5 107.5t47 79.5t68.5 49t82 17t82.5 -17t69 -49t47 -79.5t17.5 -107.5t-17.5 -106.5t-47 -78.5t-69 -49t-82.5 -17zM267 27q36 0 67.5 15.5t54 43.5t35.5 67t13 86q0 48 -13 87t-35.5 67.5t-54 44t-67.5 15.5
t-67 -15.5t-53.5 -44t-35.5 -67.5t-13 -87q0 -47 13 -86t35.5 -67t53.5 -43.5t67 -15.5zM246 573l-117 144l22 20l114 -125h4l114 125l22 -20l-117 -144h-42z" />
    <glyph glyph-name="uni01D3" unicode="&#x1d3;" horiz-adv-x="634" 
d="M316 -12q-42 0 -82 12.5t-71 43t-49.5 81.5t-18.5 128v406h46v-401q0 -66 14.5 -109.5t38.5 -70t55.5 -37.5t66.5 -11q36 0 68.5 11t57 37.5t39.5 70t15 109.5v401h43v-406q0 -77 -19 -128t-50 -81.5t-71 -43t-83 -12.5zM295 709l-113 114l20 18l113 -98h4l113 98l20 -18
l-113 -114h-44z" />
    <glyph glyph-name="uni01D4" unicode="&#x1d4;" horiz-adv-x="529" 
d="M230 -12q-75 0 -110 45t-35 139v308h44v-302q0 -77 25.5 -113.5t83.5 -36.5q43 0 78 23.5t77 74.5v354h44v-480h-37l-5 80h-2q-35 -42 -74 -67t-89 -25zM243 573l-117 144l22 20l114 -125h4l114 125l22 -20l-117 -144h-42z" />
    <glyph glyph-name="uni01D5" unicode="&#x1d5;" horiz-adv-x="634" 
d="M316 -12q-42 0 -82 12.5t-71 43t-49.5 81.5t-18.5 128v406h46v-401q0 -66 14.5 -109.5t38.5 -70t55.5 -37.5t66.5 -11q36 0 68.5 11t57 37.5t39.5 70t15 109.5v401h43v-406q0 -77 -19 -128t-50 -81.5t-71 -43t-83 -12.5zM219 725q-15 0 -25 9t-10 26t10 26.5t25 9.5
t25.5 -9.5t10.5 -26.5t-10.5 -26t-25.5 -9zM193 854v33h248v-33h-248zM415 725q-15 0 -25.5 9t-10.5 26t10.5 26.5t25.5 9.5t25 -9.5t10 -26.5t-10 -26t-25 -9z" />
    <glyph glyph-name="uni01D6" unicode="&#x1d6;" horiz-adv-x="529" 
d="M230 -12q-75 0 -110 45t-35 139v308h44v-302q0 -77 25.5 -113.5t83.5 -36.5q43 0 78 23.5t77 74.5v354h44v-480h-37l-5 80h-2q-35 -42 -74 -67t-89 -25zM175 598q-15 0 -25 10.5t-10 25.5t10 25t25 10t25.5 -10t10.5 -25t-10.5 -25.5t-25.5 -10.5zM139 747v33h248v-33
h-248zM353 598q-15 0 -25.5 10.5t-10.5 25.5t10.5 25t25.5 10t25 -10t10 -25t-10 -25.5t-25 -10.5z" />
    <glyph glyph-name="uni01D7" unicode="&#x1d7;" horiz-adv-x="634" 
d="M316 -12q-42 0 -82 12.5t-71 43t-49.5 81.5t-18.5 128v406h46v-401q0 -66 14.5 -109.5t38.5 -70t55.5 -37.5t66.5 -11q36 0 68.5 11t57 37.5t39.5 70t15 109.5v401h43v-406q0 -77 -19 -128t-50 -81.5t-71 -43t-83 -12.5zM219 725q-15 0 -25 9t-10 26t10 26.5t25 9.5
t25.5 -9.5t10.5 -26.5t-10.5 -26t-25.5 -9zM289 839l94 106l31 -25l-103 -98zM415 725q-15 0 -25.5 9t-10.5 26t10.5 26.5t25.5 9.5t25 -9.5t10 -26.5t-10 -26t-25 -9z" />
    <glyph glyph-name="uni01D8" unicode="&#x1d8;" horiz-adv-x="529" 
d="M230 -12q-75 0 -110 45t-35 139v308h44v-302q0 -77 25.5 -113.5t83.5 -36.5q43 0 78 23.5t77 74.5v354h44v-480h-37l-5 80h-2q-35 -42 -74 -67t-89 -25zM249 700l-23 18l85 104l31 -24zM175 598q-15 0 -25 10.5t-10 25.5t10 25t25 10t25.5 -10t10.5 -25t-10.5 -25.5
t-25.5 -10.5zM353 598q-15 0 -25.5 10.5t-10.5 25.5t10.5 25t25.5 10t25 -10t10 -25t-10 -25.5t-25 -10.5z" />
    <glyph glyph-name="uni01D9" unicode="&#x1d9;" horiz-adv-x="634" 
d="M316 -12q-42 0 -82 12.5t-71 43t-49.5 81.5t-18.5 128v406h46v-401q0 -66 14.5 -109.5t38.5 -70t55.5 -37.5t66.5 -11q36 0 68.5 11t57 37.5t39.5 70t15 109.5v401h43v-406q0 -77 -19 -128t-50 -81.5t-71 -43t-83 -12.5zM297 829l-104 94l19 20l103 -77h4l103 77l19 -20
l-104 -94h-40zM219 725q-15 0 -25 9t-10 26t10 26.5t25 9.5t25.5 -9.5t10.5 -26.5t-10.5 -26t-25.5 -9zM415 725q-15 0 -25.5 9t-10.5 26t10.5 26.5t25.5 9.5t25 -9.5t10 -26.5t-10 -26t-25 -9z" />
    <glyph glyph-name="uni01DA" unicode="&#x1da;" horiz-adv-x="529" 
d="M230 -12q-75 0 -110 45t-35 139v308h44v-302q0 -77 25.5 -113.5t83.5 -36.5q43 0 78 23.5t77 74.5v354h44v-480h-37l-5 80h-2q-35 -42 -74 -67t-89 -25zM169 821l93 -78h4l93 78l20 -19l-96 -92h-38l-96 92zM175 598q-15 0 -25 10.5t-10 25.5t10 25t25 10t25.5 -10
t10.5 -25t-10.5 -25.5t-25.5 -10.5zM353 598q-15 0 -25.5 10.5t-10.5 25.5t10.5 25t25.5 10t25 -10t10 -25t-10 -25.5t-25 -10.5z" />
    <glyph glyph-name="uni01DB" unicode="&#x1db;" horiz-adv-x="634" 
d="M316 -12q-42 0 -82 12.5t-71 43t-49.5 81.5t-18.5 128v406h46v-401q0 -66 14.5 -109.5t38.5 -70t55.5 -37.5t66.5 -11q36 0 68.5 11t57 37.5t39.5 70t15 109.5v401h43v-406q0 -77 -19 -128t-50 -81.5t-71 -43t-83 -12.5zM345 839l-22 -17l-103 98l31 25zM219 725
q-15 0 -25 9t-10 26t10 26.5t25 9.5t25.5 -9.5t10.5 -26.5t-10.5 -26t-25.5 -9zM415 725q-15 0 -25.5 9t-10.5 26t10.5 26.5t25.5 9.5t25 -9.5t10 -26.5t-10 -26t-25 -9z" />
    <glyph glyph-name="uni01DC" unicode="&#x1dc;" horiz-adv-x="529" 
d="M230 -12q-75 0 -110 45t-35 139v308h44v-302q0 -77 25.5 -113.5t83.5 -36.5q43 0 78 23.5t77 74.5v354h44v-480h-37l-5 80h-2q-35 -42 -74 -67t-89 -25zM279 700l-93 98l31 24l85 -104zM175 598q-15 0 -25 10.5t-10 25.5t10 25t25 10t25.5 -10t10.5 -25t-10.5 -25.5
t-25.5 -10.5zM353 598q-15 0 -25.5 10.5t-10.5 25.5t10.5 25t25.5 10t25 -10t10 -25t-10 -25.5t-25 -10.5z" />
    <glyph glyph-name="uni01E2" unicode="&#x1e2;" horiz-adv-x="809" 
d="M283 388l-73 -133h201v364h-4q-31 -56 -61.5 -113.5t-62.5 -117.5zM21 0l365 659h366v-40h-295v-249h245v-40h-245v-290h305v-40h-351v217h-222l-119 -217h-49zM456 745v36h248v-36h-248z" />
    <glyph glyph-name="uni01E3" unicode="&#x1e3;" horiz-adv-x="784" 
d="M205 -12q-29 0 -54 8t-44.5 24t-30.5 40.5t-11 58.5q0 80 75 122t230 60q0 27 -4 54.5t-16.5 49t-35 35t-57.5 13.5q-45 0 -84.5 -19t-63.5 -37l-20 33q13 9 31 20t40.5 20t48 15.5t52.5 6.5q59 0 93.5 -32.5t46.5 -87.5q26 55 69.5 87.5t97.5 32.5q85 0 131.5 -58
t46.5 -164v-18t-2 -18h-332q0 -45 13 -83t36 -65.5t54.5 -43t67.5 -15.5q39 0 68.5 11.5t56.5 31.5l19 -35q-14 -9 -29 -17t-33 -15t-39 -11t-47 -4q-32 0 -58 8.5t-47 22.5t-37.5 32t-29.5 36q-48 -46 -102.5 -72.5t-99.5 -26.5zM212 26q19 0 42 6t46.5 18t46.5 29.5
t44 39.5q-11 22 -16 54.5t-5 66.5l-1 27q-70 -9 -119 -21.5t-80 -30.5t-45 -41t-14 -52q0 -52 30 -74t71 -22zM412 268h293q0 93 -36.5 139.5t-101.5 46.5q-30 0 -56.5 -13.5t-47 -38t-34 -59t-17.5 -75.5zM291 606v36h246v-36h-246z" />
    <glyph glyph-name="Gcaron" unicode="&#x1e6;" horiz-adv-x="605" 
d="M338 -12q-64 0 -116 24t-89 68.5t-57.5 108t-20.5 142.5q0 78 21 141t59 107.5t92 68t119 23.5q33 0 60.5 -7t49.5 -18.5t39.5 -25.5t30.5 -28l-27 -31q-26 28 -62 48t-90 20q-57 0 -102 -21t-76.5 -59.5t-48.5 -93.5t-17 -124t16 -124.5t46.5 -94.5t75 -60.5
t100.5 -21.5q45 0 84.5 13t63.5 37v205h-158v39h202v-261q-31 -33 -80.5 -54t-114.5 -21zM324 709l-113 114l20 18l113 -98h4l113 98l20 -18l-113 -114h-44z" />
    <glyph glyph-name="gcaron" unicode="&#x1e7;" horiz-adv-x="487" 
d="M249 -231q-91 0 -144 36t-53 97q0 32 19 62t52 54v4q-18 11 -30 30t-12 47q0 32 18 54.5t34 33.5v4q-23 20 -41.5 54t-18.5 78q0 37 13 68t36 53.5t54 35t66 12.5q20 0 36 -3.5t27 -8.5h163v-37h-112q23 -20 38 -51.5t15 -69.5q0 -37 -13 -68t-35.5 -53.5t-53 -35
t-65.5 -12.5q-20 0 -41.5 5t-38.5 15q-16 -13 -27.5 -29t-11.5 -40q0 -26 19 -44.5t73 -18.5h103q81 0 119.5 -26.5t38.5 -83.5q0 -31 -16 -60.5t-45.5 -52t-71.5 -36t-94 -13.5zM242 188q25 0 47.5 9.5t39.5 27.5t27 43t10 55t-10 55t-26.5 42t-39.5 26.5t-48 9.5
q-26 0 -48.5 -9.5t-39.5 -26.5t-27 -41.5t-10 -55.5q0 -30 10 -55t27.5 -43t40 -27.5t47.5 -9.5zM254 -195q40 0 73 10.5t56 27.5t35.5 38.5t12.5 44.5q0 40 -28.5 56.5t-82.5 16.5h-103q-8 0 -24.5 1.5t-35.5 6.5q-33 -23 -48 -49t-15 -52q0 -45 41.5 -73t118.5 -28z
M239 573l-117 144l22 20l114 -125h4l114 125l22 -20l-117 -144h-42z" />
    <glyph glyph-name="uni01EA" unicode="&#x1ea;" horiz-adv-x="652" 
d="M357 -205q-35 0 -59.5 20t-24.5 62q0 30 16 59t45 52q-65 0 -116.5 24.5t-87.5 69.5t-55.5 108.5t-19.5 141.5t20 140.5t56 107t86 68t109 23.5q60 0 110 -23.5t86 -68t56 -107t20 -140.5q0 -132 -52 -213.5t-151 -126.5q-43 -19 -62.5 -50t-19.5 -58q0 -26 15.5 -39
t34.5 -13q25 0 43 14l17 -27q-12 -10 -30.5 -17t-35.5 -7zM326 30q50 0 91 21.5t70.5 61t45.5 95t16 124.5q0 68 -16 123t-45.5 93.5t-70.5 59.5t-91 21t-91.5 -21t-70.5 -59.5t-45 -93.5t-16 -123q0 -69 16 -124.5t45 -95t70.5 -61t91.5 -21.5z" />
    <glyph glyph-name="uni01EB" unicode="&#x1eb;" horiz-adv-x="535" 
d="M294 -203q-34 0 -57.5 20t-23.5 61q0 19 5.5 36t14 31t18.5 25t18 18q-45 1 -84.5 18t-69 49.5t-46.5 78.5t-17 105q0 60 17.5 107.5t47 79.5t68.5 49t82 17t82.5 -17t69 -49t47 -79.5t17.5 -107.5q0 -51 -11.5 -90t-32 -68.5t-49.5 -50.5t-64 -37q-33 -15 -54 -46
t-21 -63q0 -26 15 -39t34 -13q25 0 43 14l16 -26q-11 -10 -29.5 -16.5t-35.5 -6.5zM267 27q36 0 67.5 15.5t54 43.5t35.5 67t13 86q0 48 -13 87t-35.5 67.5t-54 44t-67.5 15.5t-67 -15.5t-53.5 -44t-35.5 -67.5t-13 -87q0 -47 13 -86t35.5 -67t53.5 -43.5t67 -15.5z" />
    <glyph glyph-name="uni01F4" unicode="&#x1f4;" horiz-adv-x="605" 
d="M338 -12q-64 0 -116 24t-89 68.5t-57.5 108t-20.5 142.5q0 78 21 141t59 107.5t92 68t119 23.5q33 0 60.5 -7t49.5 -18.5t39.5 -25.5t30.5 -28l-27 -31q-26 28 -62 48t-90 20q-57 0 -102 -21t-76.5 -59.5t-48.5 -93.5t-17 -124t16 -124.5t46.5 -94.5t75 -60.5
t100.5 -21.5q45 0 84.5 13t63.5 37v205h-158v39h202v-261q-31 -33 -80.5 -54t-114.5 -21zM324 706l-20 23l125 123l28 -33z" />
    <glyph glyph-name="uni01F5" unicode="&#x1f5;" horiz-adv-x="487" 
d="M249 -231q-91 0 -144 36t-53 97q0 32 19 62t52 54v4q-18 11 -30 30t-12 47q0 32 18 54.5t34 33.5v4q-23 20 -41.5 54t-18.5 78q0 37 13 68t36 53.5t54 35t66 12.5q20 0 36 -3.5t27 -8.5h163v-37h-112q23 -20 38 -51.5t15 -69.5q0 -37 -13 -68t-35.5 -53.5t-53 -35
t-65.5 -12.5q-20 0 -41.5 5t-38.5 15q-16 -13 -27.5 -29t-11.5 -40q0 -26 19 -44.5t73 -18.5h103q81 0 119.5 -26.5t38.5 -83.5q0 -31 -16 -60.5t-45.5 -52t-71.5 -36t-94 -13.5zM242 188q25 0 47.5 9.5t39.5 27.5t27 43t10 55t-10 55t-26.5 42t-39.5 26.5t-48 9.5
q-26 0 -48.5 -9.5t-39.5 -26.5t-27 -41.5t-10 -55.5q0 -30 10 -55t27.5 -43t40 -27.5t47.5 -9.5zM254 -195q40 0 73 10.5t56 27.5t35.5 38.5t12.5 44.5q0 40 -28.5 56.5t-82.5 16.5h-103q-8 0 -24.5 1.5t-35.5 6.5q-33 -23 -48 -49t-15 -52q0 -45 41.5 -73t118.5 -28z
M231 574l-24 23l134 157l34 -29z" />
    <glyph glyph-name="uni01F8" unicode="&#x1f8;" horiz-adv-x="636" 
d="M97 0v659h48l278 -465l74 -131h4l-4 96t-2 96v404h44v-659h-48l-278 465l-74 131h-4q2 -48 4 -93.5t2 -93.5v-409h-44zM344 706l-133 113l28 33l125 -123z" />
    <glyph glyph-name="uni01F9" unicode="&#x1f9;" horiz-adv-x="532" 
d="M92 0v480h38l4 -74h3q37 37 76 61.5t89 24.5q75 0 110 -45t35 -139v-308h-44v302q0 77 -25.5 113.5t-84.5 36.5q-43 0 -78 -22.5t-79 -67.5v-362h-44zM311 574l-144 151l34 29l134 -157z" />
    <glyph glyph-name="uni01FC" unicode="&#x1fc;" horiz-adv-x="809" 
d="M283 388l-73 -133h201v364h-4q-31 -56 -61.5 -113.5t-62.5 -117.5zM21 0l365 659h366v-40h-295v-249h245v-40h-245v-290h305v-40h-351v217h-222l-119 -217h-49zM559 708l-20 23l125 123l28 -33z" />
    <glyph glyph-name="uni01FD" unicode="&#x1fd;" horiz-adv-x="784" 
d="M205 -12q-29 0 -54 8t-44.5 24t-30.5 40.5t-11 58.5q0 80 75 122t230 60q0 27 -4 54.5t-16.5 49t-35 35t-57.5 13.5q-45 0 -84.5 -19t-63.5 -37l-20 33q13 9 31 20t40.5 20t48 15.5t52.5 6.5q59 0 93.5 -32.5t46.5 -87.5q26 55 69.5 87.5t97.5 32.5q85 0 131.5 -58
t46.5 -164v-18t-2 -18h-332q0 -45 13 -83t36 -65.5t54.5 -43t67.5 -15.5q39 0 68.5 11.5t56.5 31.5l19 -35q-14 -9 -29 -17t-33 -15t-39 -11t-47 -4q-32 0 -58 8.5t-47 22.5t-37.5 32t-29.5 36q-48 -46 -102.5 -72.5t-99.5 -26.5zM212 26q19 0 42 6t46.5 18t46.5 29.5
t44 39.5q-11 22 -16 54.5t-5 66.5l-1 27q-70 -9 -119 -21.5t-80 -30.5t-45 -41t-14 -52q0 -52 30 -74t71 -22zM412 268h293q0 93 -36.5 139.5t-101.5 46.5q-30 0 -56.5 -13.5t-47 -38t-34 -59t-17.5 -75.5zM385 574l-24 23l134 157l34 -29z" />
    <glyph glyph-name="uni0218" unicode="&#x218;" horiz-adv-x="521" 
d="M269 -12q-72 0 -128 27.5t-95 71.5l30 32q36 -41 86 -65t107 -24q76 0 120 36.5t44 95.5q0 31 -9.5 52.5t-25.5 37t-37.5 26.5t-45.5 22l-100 45q-21 9 -45 22t-43.5 32.5t-32.5 46t-13 63.5q0 36 14.5 65.5t40 51t61 33.5t76.5 12q60 0 106.5 -23.5t76.5 -55.5l-26 -30
q-29 30 -68 48.5t-89 18.5q-66 0 -106 -32t-40 -86q0 -29 11 -49t28 -34.5t37 -25t38 -18.5l100 -44q28 -12 53 -27t44 -35t30.5 -47.5t11.5 -65.5t-15 -70.5t-42.5 -56t-66.5 -37t-87 -13.5zM191 -219l-7 30q65 4 89 17t24 35q0 23 -20.5 33.5t-56.5 13.5l13 29
q57 -8 80 -24.5t23 -48.5q0 -39 -37 -59.5t-108 -25.5z" />
    <glyph glyph-name="uni0219" unicode="&#x219;" horiz-adv-x="405" 
d="M208 -12q-54 0 -99 19.5t-77 46.5l26 33q31 -26 66 -43.5t87 -17.5q57 0 85.5 28.5t28.5 66.5q0 22 -10.5 39t-27.5 29t-37.5 21t-41.5 17q-27 10 -54.5 21t-49.5 26.5t-35.5 37t-13.5 52.5q0 26 10 49.5t30 41t48.5 27.5t66.5 10t74.5 -14t62.5 -36l-24 -31
q-24 18 -51 30.5t-64 12.5q-28 0 -48 -7.5t-33.5 -19.5t-20 -28t-6.5 -32q0 -21 9.5 -35.5t25.5 -25.5t36.5 -19.5t41.5 -16.5l56 -22t50.5 -27t36.5 -39.5t14 -58.5q0 -27 -10.5 -51.5t-31.5 -43t-51 -29.5t-69 -11zM140 -219l-7 30q65 4 89 17t24 35q0 23 -20.5 33.5
t-56.5 13.5l13 29q57 -8 80 -24.5t23 -48.5q0 -39 -37 -59.5t-108 -25.5z" />
    <glyph glyph-name="uni021A" unicode="&#x21a;" horiz-adv-x="524" 
d="M239 0v619h-210v40h466v-40h-210v-619h-46zM186 -219l-7 30q65 4 89 17t24 35q0 23 -20.5 33.5t-56.5 13.5l13 29q57 -8 80 -24.5t23 -48.5q0 -39 -37 -59.5t-108 -25.5z" />
    <glyph glyph-name="uni021B" unicode="&#x21b;" horiz-adv-x="312" 
d="M223 -12q-35 0 -58 10.5t-37 29.5t-19.5 46t-5.5 59v309h-75v34l76 4l6 139h38v-139h139v-38h-139v-313q0 -23 3.5 -41.5t12.5 -32t24.5 -21t40.5 -7.5q14 0 30.5 4.5t29.5 10.5l12 -36q-21 -8 -42 -13t-36 -5zM123 -219l-7 30q65 4 89 17t24 35q0 23 -20.5 33.5
t-56.5 13.5l13 29q57 -8 80 -24.5t23 -48.5q0 -39 -37 -59.5t-108 -25.5z" />
    <glyph glyph-name="uni0237" unicode="&#x237;" horiz-adv-x="229" 
d="M29 -229q-17 0 -34 3.5t-28 8.5l11 36q9 -3 22.5 -6.5t27.5 -3.5q40 0 52 29.5t12 75.5v566h45v-569q0 -71 -26 -105.5t-82 -34.5z" />
    <glyph glyph-name="uni0243" unicode="&#x243;" horiz-adv-x="588" 
d="M111 0v178h-78v30l78 3v448h178q99 0 158 -39t59 -121q0 -51 -29 -89t-88 -53v-4q73 -11 115.5 -51t42.5 -109q0 -48 -17.5 -84t-49.5 -60t-77 -36.5t-101 -12.5h-191zM157 370h113q102 0 146.5 33t44.5 98q0 64 -47 92.5t-138 28.5h-119v-252zM157 37h133q98 0 155 38
t57 118q0 72 -55.5 107t-156.5 35h-133v-124h166v-33h-166v-141z" />
    <glyph glyph-name="uni0250" unicode="&#x250;" horiz-adv-x="499" 
d="M266 -12q-51 0 -86 15.5t-56.5 42t-30.5 62t-9 75.5v297h38l5 -72h2q38 38 85 61t96 23q27 0 50 -7t40.5 -22t27.5 -38t10 -54q0 -84 -74.5 -128.5t-234.5 -63.5q-1 -26 4.5 -52.5t21.5 -49t43.5 -36.5t71.5 -14q46 0 83.5 19t60.5 37l20 -33q-12 -9 -29.5 -20t-39 -20
t-47 -15.5t-52.5 -6.5zM129 213q74 9 124.5 23t81.5 33t44.5 43.5t13.5 54.5q0 24 -7.5 40.5t-20 27t-29 15t-35.5 4.5q-40 0 -82 -20.5t-90 -68.5v-152z" />
    <glyph glyph-name="uni0251" unicode="&#x251;" horiz-adv-x="544" 
d="M251 -12q-91 0 -145 64.5t-54 186.5q0 58 17.5 105t46.5 80t68 50.5t82 17.5t75.5 -15t66.5 -43h2l3 46h39v-480h-38l-4 62h-3q-29 -29 -68.5 -51.5t-87.5 -22.5zM257 27q40 0 76.5 20.5t74.5 58.5v285q-38 34 -71.5 48t-68.5 14q-36 0 -67 -16.5t-53.5 -45t-35.5 -68
t-13 -84.5q0 -48 10.5 -87t30.5 -66.5t49.5 -43t67.5 -15.5z" />
    <glyph glyph-name="uni0252" unicode="&#x252;" horiz-adv-x="544" 
d="M280 -12q-34 0 -70.5 15.5t-73.5 42.5h-2l-3 -46h-39v480h38l4 -62h3q35 29 76.5 51.5t86.5 22.5q96 0 144 -66.5t48 -178.5q0 -61 -17 -109t-46.5 -81.5t-68 -51t-80.5 -17.5zM278 27q36 0 67 16t53 45t34.5 69.5t12.5 89.5q0 44 -8.5 82t-26.5 65.5t-47 43t-70 15.5
q-36 0 -74.5 -20.5t-82.5 -58.5v-285q42 -34 78 -48t64 -14z" />
    <glyph glyph-name="uni0253" unicode="&#x253;" horiz-adv-x="544" 
d="M280 -12q-35 0 -72.5 15.5t-71.5 41.5h-2l-5 -45h-37v558q0 82 38.5 127.5t109.5 45.5q37 0 72 -16l-14 -36q-28 14 -57 14q-55 0 -79.5 -38t-25.5 -100l-2 -140q37 31 79 53t87 22q96 0 144 -66.5t48 -177.5q0 -61 -17 -109t-46.5 -81t-68 -50.5t-80.5 -17.5zM278 27
q36 0 67 16t53 45t34.5 69.5t12.5 88.5q0 44 -8.5 81.5t-26.5 65t-47 43t-70 15.5q-36 0 -75 -20.5t-82 -58.5v-283q40 -34 77 -48t65 -14z" />
    <glyph glyph-name="uni0254" unicode="&#x254;" horiz-adv-x="449" 
d="M179 -12q-46 0 -84 18t-69 45l22 31q25 -23 58 -39t71 -16q39 0 70.5 15.5t54.5 43.5t35.5 67t12.5 86q0 48 -12.5 87.5t-35 67.5t-52.5 43.5t-64 15.5q-42 0 -70 -14t-53 -37l-26 31q27 24 62 41.5t91 17.5q41 0 78.5 -16.5t66 -49t45.5 -79.5t17 -108q0 -60 -17 -106.5
t-46.5 -78.5t-69 -49t-85.5 -17z" />
    <glyph glyph-name="uni0255" unicode="&#x255;" horiz-adv-x="449" 
d="M278 26q43 0 71.5 17t28.5 44q0 19 -14.5 35.5t-46.5 16.5q-33 0 -68.5 -22.5t-67.5 -60.5q44 -30 97 -30zM115 -67l-38 15q11 27 23.5 52t26.5 46q-35 32 -55 81t-20 112q0 60 18 107.5t48 79.5t69.5 49t83.5 17q50 0 83 -18t58 -41l-26 -30q-23 22 -51 36.5t-63 14.5
q-37 0 -69 -15.5t-55.5 -44t-37 -68t-13.5 -87.5q0 -50 15 -89.5t41 -68.5q36 45 78.5 69.5t87.5 24.5q48 0 74 -24.5t26 -61.5q0 -42 -37.5 -71.5t-103.5 -29.5t-121 35q-26 -41 -42 -90z" />
    <glyph glyph-name="uni0256" unicode="&#x256;" horiz-adv-x="544" 
d="M505 -181q-50 0 -73.5 31t-23.5 98l2 115q-32 -31 -71.5 -53t-87.5 -22q-91 0 -145 64.5t-54 186.5q0 58 17 105t46.5 80t68 50.5t81.5 17.5q44 0 76.5 -15.5t68.5 -43.5l-2 88v210h44v-775q0 -45 11 -71.5t43 -26.5q12 0 22.5 3t18.5 6l10 -36q-8 -5 -23 -8.5t-29 -3.5z
M257 27q40 0 76.5 20.5t74.5 58.5v285q-38 34 -71.5 48t-68.5 14q-36 0 -67 -16.5t-53.5 -45t-35.5 -68t-13 -84.5q0 -48 10.5 -87t30.5 -66.5t49.5 -43t67.5 -15.5z" />
    <glyph glyph-name="uni0257" unicode="&#x257;" horiz-adv-x="544" 
d="M251 -12q-91 0 -145 64.5t-54 186.5q0 58 17 105t46.5 80t68 50.5t81.5 17.5q44 0 76.5 -15.5t68.5 -43.5l-2 163q0 70 27.5 103.5t77.5 33.5q27 0 49 -10l-10 -36q-8 3 -17.5 5.5t-20.5 2.5q-35 0 -48.5 -29t-13.5 -75v-591h-38l-4 62h-3q-29 -29 -68.5 -51.5
t-87.5 -22.5zM257 27q40 0 76.5 20.5t74.5 58.5v285q-38 34 -71.5 48t-68.5 14q-36 0 -67 -16.5t-53.5 -45t-35.5 -68t-13 -84.5q0 -48 10.5 -87t30.5 -66.5t49.5 -43t67.5 -15.5z" />
    <glyph glyph-name="uni0258" unicode="&#x258;" horiz-adv-x="483" 
d="M213 -12q-53 0 -90 15t-65 32l18 34q27 -20 60.5 -31.5t72.5 -11.5q42 0 74.5 15.5t55 43t34.5 66t13 83.5h-346q-2 9 -2 18v18q0 53 14.5 94t40 69.5t61 43.5t78.5 15t79.5 -17.5t63 -50t41.5 -79.5t15 -106t-16.5 -105.5t-45.5 -79t-69 -49.5t-87 -17zM79 270h307
q-8 87 -48.5 135.5t-106.5 48.5q-32 0 -60 -11.5t-48.5 -34.5t-32 -57.5t-11.5 -80.5z" />
    <glyph glyph-name="uni0259" unicode="&#x259;" horiz-adv-x="483" 
d="M231 -12q-42 0 -77.5 15t-61 44t-40 72.5t-14.5 99.5v19t2 19h346q-1 42 -12 78t-32 62.5t-51 41.5t-69 15q-42 0 -74.5 -13t-61.5 -33l-18 34q30 20 67.5 35t91.5 15q44 0 81.5 -16.5t64.5 -49t42.5 -79t15.5 -106.5q0 -59 -15 -106t-42 -79.5t-63.5 -50t-79.5 -17.5z
M230 26q68 0 108.5 52t47.5 143h-307q0 -101 42.5 -148t108.5 -47z" />
    <glyph glyph-name="uni025A" unicode="&#x25a;" horiz-adv-x="613" 
d="M242 -12q-45 0 -81 15.5t-62 42.5t-41.5 63t-19.5 77l340 135q-17 67 -59.5 100t-96.5 33q-44 0 -74.5 -13t-59.5 -33l-18 34q29 20 65 35t90 15q69 0 121 -39.5t74 -114.5l74 29l30 -12q3 -29 8 -46t11.5 -26t15 -12t18.5 -3q11 0 21 5t17 12l18 -28q-11 -8 -25.5 -16
t-34.5 -8q-26 0 -50 21t-32 73l-63 -25q2 -14 3.5 -30t1.5 -33q0 -51 -13.5 -97t-38 -80t-60 -54t-79.5 -20zM242 26q34 0 61.5 17t46 46t28.5 67t10 81q0 25 -3 48l-303 -119q11 -66 54 -103t106 -37z" />
    <glyph glyph-name="uni025B" unicode="&#x25b;" horiz-adv-x="427" 
d="M238 -12q-41 0 -74.5 10t-58.5 29t-38.5 45t-13.5 58q0 27 9.5 47.5t25 35.5t35 25t39.5 15v4q-38 15 -60 44.5t-22 66.5q0 31 13 54t35.5 38.5t51.5 23.5t62 8q44 0 78 -13.5t63 -36.5l-21 -32q-29 20 -57.5 32t-63.5 12q-23 0 -44 -5.5t-37 -16.5t-25 -28t-9 -40
q0 -40 33 -67t105 -27h47v-36h-61q-72 0 -111.5 -27t-39.5 -75q0 -49 40 -77.5t105 -28.5q39 0 71.5 12t67.5 40l22 -32q-40 -31 -78 -44.5t-89 -13.5z" />
    <glyph glyph-name="uni025C" unicode="&#x25c;" horiz-adv-x="444" 
d="M207 -12q-51 0 -89 13.5t-79 44.5l22 32q36 -28 68 -40t72 -12q65 0 105 28.5t40 77.5q0 48 -40 75t-112 27h-61v36h47q72 0 105 27t33 67q0 46 -31 68t-78 22q-35 0 -66.5 -12t-60.5 -32l-20 32q29 23 65.5 36.5t81.5 13.5q32 0 60.5 -8t49.5 -23.5t33 -38.5t12 -54
q0 -37 -22 -66.5t-60 -44.5v-4q20 -5 39.5 -15t35 -25t25 -35.5t9.5 -47.5q0 -32 -13.5 -58t-38 -45t-58.5 -29t-74 -10z" />
    <glyph glyph-name="uni025E" unicode="&#x25e;" horiz-adv-x="534" 
d="M252 -12q-45 0 -81.5 10t-62.5 29t-40.5 45t-14.5 58q0 27 9.5 47.5t25 35.5t35 25t39.5 15v4q-38 15 -60 44.5t-22 66.5q0 31 13 54t35.5 38.5t53 23.5t65.5 8q50 0 93 -16t75 -48t50 -79t18 -110q0 -62 -18 -109t-49 -78.5t-73 -47.5t-91 -16zM254 26q84 0 133 56
t49 157t-51.5 158t-136.5 57q-53 0 -87.5 -22t-34.5 -68q0 -40 32.5 -67t104.5 -27h25v-36h-39q-72 0 -111 -27t-39 -75q0 -49 41.5 -77.5t113.5 -28.5z" />
    <glyph glyph-name="uni025F" unicode="&#x25f;" horiz-adv-x="241" 
d="M35 -229q-17 0 -34 3.5t-28 8.5l11 36q9 -3 22.5 -6.5t27.5 -3.5q40 0 52 29.5t12 75.5v322h-93v29l93 4v211h45v-211h89v-33h-89v-325q0 -71 -26 -105.5t-82 -34.5z" />
    <glyph glyph-name="uni0260" unicode="&#x260;" horiz-adv-x="545" 
d="M258 -229q-48 0 -90.5 14t-77.5 38l20 35q36 -26 73 -38t75 -12q75 0 112.5 42t37.5 115l1 109q-29 -29 -69.5 -51.5t-88.5 -22.5q-91 0 -144.5 63.5t-53.5 182.5q0 57 17 102.5t46.5 77.5t68 49t81.5 17t75.5 -15.5t68.5 -43.5l-1 46q0 69 27.5 102.5t77.5 33.5
q26 0 49 -10l-10 -36q-8 3 -17.5 5.5t-20.5 2.5q-35 0 -49 -29.5t-14 -74.5v-515q0 -86 -50 -136.5t-144 -50.5zM258 39q40 0 76 20.5t74 58.5v273q-38 34 -71.5 48t-68.5 14q-36 0 -66.5 -16t-53.5 -43.5t-36 -65.5t-13 -82q0 -93 41 -150t118 -57z" />
    <glyph glyph-name="uni0261" unicode="&#x261;" horiz-adv-x="545" 
d="M258 -229q-48 0 -90.5 14t-77.5 38l20 35q36 -26 73 -38t75 -12q75 0 112.5 42t37.5 115l1 109q-29 -29 -69.5 -51.5t-88.5 -22.5q-91 0 -144.5 63.5t-53.5 182.5q0 57 17 102.5t46.5 77.5t68 49t81.5 17t75.5 -15t64.5 -41h3l4 44h39v-522q0 -86 -50 -136.5t-144 -50.5z
M258 39q40 0 76 20.5t74 58.5v273q-38 34 -71.5 48t-68.5 14q-36 0 -66.5 -16t-53.5 -43.5t-36 -65.5t-13 -82q0 -93 41 -150t118 -57z" />
    <glyph glyph-name="uni0262" unicode="&#x262;" horiz-adv-x="486" 
d="M276 -12q-49 0 -90 17t-71 50t-46.5 80.5t-16.5 107.5q0 57 17 103.5t47.5 78.5t72.5 49.5t92 17.5q54 0 88.5 -19t57.5 -41l-26 -30q-20 20 -48 36t-70 16q-41 0 -75 -14.5t-59 -42t-39 -66.5t-14 -88q0 -102 50 -159.5t134 -57.5q34 0 63 11.5t47 28.5v139h-122v37h164
v-195q-25 -24 -64.5 -41.5t-91.5 -17.5z" />
    <glyph glyph-name="uni0263" unicode="&#x263;" horiz-adv-x="434" 
d="M218 -231q-43 0 -64 27t-21 71q0 34 15.5 72.5t40.5 94.5l-177 446h48l108 -289q11 -34 24 -63.5t24 -61.5h4q12 32 24.5 61.5t24.5 63.5l108 289h45l-174 -446q25 -56 40.5 -94.5t15.5 -72.5q0 -44 -21.5 -71t-64.5 -27zM218 -195q23 0 33 17t10 42q0 30 -11.5 67
t-29.5 72h-4q-17 -35 -28.5 -73t-11.5 -66q0 -25 9.5 -42t32.5 -17z" />
    <glyph glyph-name="uni0264" unicode="&#x264;" horiz-adv-x="477" 
d="M238 -12q-81 0 -120 43t-39 116q0 30 10 60t27.5 58.5t41 55.5t49.5 52q-32 37 -63.5 58.5t-63.5 21.5q-29 0 -47 -14l-17 33q29 20 69 20q41 0 79.5 -26.5t73.5 -65.5q35 39 73.5 65.5t79.5 26.5t70 -20l-17 -33q-10 8 -22 11t-25 3q-33 0 -64.5 -21.5t-62.5 -58.5
q25 -25 48.5 -52t41 -55.5t28 -58.5t10.5 -60q0 -73 -39 -116t-121 -43zM238 27q30 0 51.5 9.5t35.5 26t21 38.5t7 47q0 27 -9 53t-25 51.5t-36.5 50t-44.5 46.5q-23 -22 -44 -46.5t-36.5 -50t-24.5 -51.5t-9 -53q0 -25 7 -47t21 -38.5t35.5 -26t50.5 -9.5z" />
    <glyph glyph-name="uni0265" unicode="&#x265;" horiz-adv-x="532" 
d="M395 -217v187l3 113q-39 -45 -78.5 -70t-89.5 -25q-75 0 -110 45t-35 139v308h44v-302q0 -77 25.5 -113.5t83.5 -36.5q21 0 40 5.5t38 17.5t38 30.5t41 44.5v354h44v-697h-44z" />
    <glyph glyph-name="uni0266" unicode="&#x266;" horiz-adv-x="528" 
d="M92 0v558q0 82 38.5 127.5t109.5 45.5q37 0 72 -16l-14 -36q-28 14 -57 14q-55 0 -79.5 -38t-25.5 -100v-152q38 38 77 62.5t89 24.5q75 0 110 -45t35 -139v-306h-44v300q0 77 -25.5 113.5t-84.5 36.5q-43 0 -78 -22.5t-79 -67.5v-360h-44z" />
    <glyph glyph-name="uni0267" unicode="&#x267;" horiz-adv-x="528" 
d="M339 -181q-17 0 -33.5 3.5t-27.5 8.5l10 36q9 -3 22.5 -6t27.5 -3q40 0 52.5 29t12.5 75v338q0 77 -25.5 113.5t-84.5 36.5q-43 0 -78 -22.5t-79 -67.5v-360h-44v558q0 82 38.5 127.5t109.5 45.5q37 0 72 -16l-14 -36q-28 14 -57 14q-55 0 -79.5 -38t-25.5 -100v-152
q38 38 77 62.5t89 24.5q75 0 110 -45t35 -139v-347q0 -71 -25.5 -105.5t-82.5 -34.5z" />
    <glyph glyph-name="uni0268" unicode="&#x268;" horiz-adv-x="241" 
d="M5 236v29l93 4v211h44v-211h90v-33h-90v-236h-44v236h-93zM121 596q-17 0 -28.5 11t-11.5 28q0 19 11.5 29.5t28.5 10.5t28.5 -10.5t11.5 -29.5q0 -17 -11.5 -28t-28.5 -11z" />
    <glyph glyph-name="uni026A" unicode="&#x26a;" horiz-adv-x="310" 
d="M43 0v39h90v403h-90v38h224v-38h-90v-403h90v-39h-224z" />
    <glyph glyph-name="uni026C" unicode="&#x26c;" horiz-adv-x="258" 
d="M112 334q-59 0 -87 22t-28 56q0 29 19 48.5t51 19.5q20 0 33.5 -7t22.5 -18v264h44v-352h90v-33h-90v-276q0 -16 6 -23.5t15 -7.5h6.5t11.5 2l8 -36q-7 -2 -14 -3.5t-18 -1.5q-59 0 -59 76v270h-11zM105 367h18v9q0 13 -2.5 26t-8.5 23t-15.5 16t-24.5 6q-20 0 -28.5 -11
t-8.5 -26q0 -17 16.5 -30t53.5 -13z" />
    <glyph glyph-name="uni026D" unicode="&#x26d;" horiz-adv-x="237" 
d="M190 -181q-51 0 -74.5 32.5t-23.5 101.5v766h44v-763q0 -45 11.5 -71.5t43.5 -26.5q11 0 21.5 3t18.5 6l10 -36q-8 -5 -22.5 -8.5t-28.5 -3.5z" />
    <glyph glyph-name="uni026E" unicode="&#x26e;" horiz-adv-x="540" 
d="M329 -229q-36 0 -65 6.5t-52 17.5t-41 24t-33 27l26 31q13 -13 29 -25t35.5 -21.5t44 -15t55.5 -5.5q30 0 57 12.5t47.5 35t32.5 54t12 70.5q0 72 -39.5 114t-116.5 42q-22 0 -35.5 -5.5t-30.5 -13.5l-24 31l215 292h-310v-442h-44v719h44v-239h367v-23l-212 -288
q53 10 96 0t73 -35t46.5 -63.5t16.5 -85.5q0 -52 -16.5 -92t-43.5 -67t-62 -41t-72 -14z" />
    <glyph glyph-name="uni026F" unicode="&#x26f;" horiz-adv-x="812" 
d="M229 -12q-144 0 -144 184v308h44v-302q0 -77 26 -113.5t82 -36.5q34 0 69 22.5t75 67.5v362h44v-302q0 -77 26 -113.5t81 -36.5q64 0 144 90v362h44v-480h-37l-5 75h-2q-33 -37 -72 -62t-80 -25q-58 0 -88.5 26.5t-43.5 71.5q-42 -45 -81.5 -71.5t-81.5 -26.5z" />
    <glyph glyph-name="uni0270" unicode="&#x270;" horiz-adv-x="812" 
d="M676 -217v185l3 110q-36 -42 -75.5 -66t-79.5 -24q-58 0 -88.5 26.5t-43.5 71.5q-42 -45 -81.5 -71.5t-81.5 -26.5q-144 0 -144 184v308h44v-302q0 -77 26 -113.5t82 -36.5q34 0 69 22.5t75 67.5v362h44v-302q0 -77 26 -113.5t81 -36.5q64 0 144 90v362h44v-697h-44z" />
    <glyph glyph-name="uni0271" unicode="&#x271;" horiz-adv-x="812" 
d="M621 -181q-17 0 -33.5 3.5t-27.5 8.5l11 36q8 -3 21.5 -6t27.5 -3q20 0 32.5 7.5t19 21.5t9 33t2.5 42v340q0 77 -26 113.5t-81 36.5q-65 0 -144 -90v-362h-44v302q0 77 -26 113.5t-82 36.5q-65 0 -144 -90v-362h-44v480h38l4 -74h3q32 37 71.5 61.5t79.5 24.5
q58 0 89 -26.5t44 -71.5q42 45 81.5 71.5t81.5 26.5q144 0 144 -184v-349q0 -71 -25.5 -105.5t-81.5 -34.5z" />
    <glyph glyph-name="uni0272" unicode="&#x272;" horiz-adv-x="532" 
d="M39 -181q-14 0 -29 3.5t-23 8.5l10 36q8 -3 19 -6t22 -3q32 0 43 26.5t11 71.5v524h41l1 -74h3q37 37 76 61.5t89 24.5q75 0 110 -45t35 -139v-308h-44v302q0 77 -25.5 113.5t-84.5 36.5q-43 0 -78 -22.5t-79 -67.5v-409q0 -69 -23 -101.5t-74 -32.5z" />
    <glyph glyph-name="uni0273" unicode="&#x273;" horiz-adv-x="532" 
d="M500 -181q-51 0 -74 32.5t-23 101.5v349q0 77 -25.5 113.5t-84.5 36.5q-43 0 -78 -22.5t-79 -67.5v-362h-44v480h38l4 -74h3q37 37 76 61.5t89 24.5q75 0 110 -45t35 -139v-352q0 -45 11 -71.5t43 -26.5q12 0 22.5 3t18.5 6l10 -36q-8 -5 -23 -8.5t-29 -3.5z" />
    <glyph glyph-name="uni0274" unicode="&#x274;" horiz-adv-x="532" 
d="M92 0v480h44l200 -313q14 -23 31 -52t31 -52h4q-2 48 -3.5 93t-1.5 84v240h43v-480h-43l-201 314q-14 22 -31 51.5t-31 52.5h-4q2 -48 3.5 -93t1.5 -85v-240h-43z" />
    <glyph glyph-name="uni0275" unicode="&#x275;" horiz-adv-x="535" 
d="M267 -12q-44 0 -83 16t-68.5 47.5t-46.5 78.5t-17 109q0 63 17 110t46.5 79t68.5 48t83 16t83.5 -16t69 -48t46.5 -79t17 -110q0 -62 -17 -109t-46.5 -78.5t-69 -47.5t-83.5 -16zM267 454q-34 0 -63.5 -12.5t-52 -36.5t-37 -58t-18.5 -77h343q-8 87 -55.5 135.5
t-116.5 48.5zM267 26q37 0 69 14.5t55 41.5t36 65.5t13 86.5h-345q1 -49 14 -87.5t36 -65.5t54 -41t68 -14z" />
    <glyph glyph-name="uni0276" unicode="&#x276;" horiz-adv-x="684" 
d="M285 -12q-50 0 -93 16.5t-74 49t-48.5 79.5t-17.5 108t17.5 107.5t48.5 78.5t74 48.5t93 16.5q22 0 45 -2t50 -10h277v-37h-243v-173h202v-36h-202v-197h253v-37h-287q-27 -8 -50 -10t-45 -2zM288 27q18 0 39.5 4.5t40.5 10.5v397q-19 5 -40.5 9.5t-39.5 4.5
q-41 0 -75 -13.5t-59.5 -40.5t-39.5 -66.5t-14 -91.5q0 -53 14 -93t39.5 -67t59.5 -40.5t75 -13.5z" />
    <glyph glyph-name="uni0278" unicode="&#x278;" horiz-adv-x="647" 
d="M98 241q0 -48 16.5 -87.5t44.5 -67t65 -43.5t78 -17v428q-41 -1 -78 -16.5t-65 -43t-44.5 -66.5t-16.5 -87zM548 241q0 48 -15.5 87t-42.5 66.5t-64.5 43t-80.5 16.5v-428q41 1 78 17t64.5 43.5t44 67t16.5 87.5zM302 -217v207q-48 1 -93 18t-80 49t-56 78.5t-21 105.5
t21 105t56 77.5t80 48.5t93 18v229h43v-229q50 -1 95 -18t79.5 -48.5t55 -77.5t20.5 -105t-21 -105.5t-56 -78.5t-80 -49t-93 -18v-207h-43z" />
    <glyph glyph-name="uni0279" unicode="&#x279;" horiz-adv-x="317" 
d="M44 -12q-13 0 -24.5 2t-23.5 8l10 40q13 -5 21.5 -6.5t22.5 -1.5q32 0 67.5 27.5t63.5 96.5v326h44v-480h-37l-5 90h-2q-25 -45 -59.5 -73.5t-77.5 -28.5z" />
    <glyph glyph-name="uni027A" unicode="&#x27a;" horiz-adv-x="317" 
d="M44 -12q-13 0 -24.5 2t-23.5 8l10 40q13 -5 21.5 -6.5t22.5 -1.5q32 0 67.5 27.5t63.5 96.5v565h44v-719h-37l-5 90h-2q-25 -45 -59.5 -73.5t-77.5 -28.5z" />
    <glyph glyph-name="uni027B" unicode="&#x27b;" horiz-adv-x="317" 
d="M278 -181q-50 0 -72.5 31.5t-22.5 99.5v140h-2q-25 -45 -59.5 -73.5t-77.5 -28.5q-13 0 -24.5 2t-23.5 8l10 40q13 -5 21.5 -6.5t22.5 -1.5q32 0 67.5 27.5t63.5 96.5v326h44v-524q0 -45 11 -71.5t43 -26.5q12 0 22.5 3t18.5 6l10 -36q-8 -5 -23 -8.5t-29 -3.5z" />
    <glyph glyph-name="uni027D" unicode="&#x27d;" horiz-adv-x="317" 
d="M190 -181q-51 0 -74.5 32.5t-23.5 101.5v527h38l4 -89h3q24 45 58.5 73t77.5 28q14 0 25 -2t23 -8l-10 -40q-12 5 -21 6.5t-23 1.5q-32 0 -67.5 -27.5t-63.5 -95.5v-371q0 -45 11.5 -71.5t43.5 -26.5q11 0 21.5 3t18.5 6l10 -36q-8 -5 -22.5 -8.5t-28.5 -3.5z" />
    <glyph glyph-name="uni027E" unicode="&#x27e;" horiz-adv-x="306" 
d="M92 0v320q0 43 11.5 75.5t31.5 54t47 32t58 10.5q43 0 70 -14l-10 -38q-14 8 -27.5 10t-31.5 2q-45 0 -75 -36.5t-30 -103.5v-312h-44z" />
    <glyph glyph-name="uni0280" unicode="&#x280;" horiz-adv-x="474" 
d="M92 0v480h153q37 0 69 -7t54.5 -22.5t35.5 -41t13 -61.5q0 -62 -36 -95t-89 -41l140 -212h-50l-134 209h-112v-209h-44zM136 246h98q64 0 100.5 25t36.5 76t-36.5 73.5t-100.5 22.5h-98v-197z" />
    <glyph glyph-name="uni0281" unicode="&#x281;" horiz-adv-x="474" 
d="M229 0q-38 0 -69.5 7.5t-54 23.5t-35.5 41.5t-13 61.5q0 62 36 95.5t89 41.5l-140 209h50l134 -206h112v206h44v-480h-153zM240 38h98v200h-98q-64 0 -100.5 -26t-36.5 -77t36.5 -74t100.5 -23z" />
    <glyph glyph-name="uni0282" unicode="&#x282;" horiz-adv-x="405" 
d="M208 -12q-38 0 -71.5 8.5t-62.5 22.5v-57q0 -23 2.5 -42t9.5 -33t20 -22t33 -8q14 0 27.5 3.5t22.5 6.5l11 -36q-11 -5 -28 -8.5t-34 -3.5q-55 0 -80.5 34.5t-25.5 105.5v86l26 32q31 -22 66 -36.5t87 -14.5q57 0 85.5 28.5t28.5 66.5q0 22 -10.5 39t-27.5 29t-37.5 21
t-41.5 17q-27 10 -54.5 21t-49.5 26.5t-35.5 37t-13.5 52.5q0 26 10 49.5t30 41t48.5 27.5t66.5 10t74.5 -14t62.5 -36l-24 -31q-24 18 -51 30.5t-64 12.5q-28 0 -48 -7.5t-33.5 -19.5t-20 -28t-6.5 -32q0 -21 9.5 -35.5t25.5 -25.5t36.5 -19.5t41.5 -16.5l56 -22t50.5 -27
t36.5 -39.5t14 -58.5q0 -27 -10.5 -51.5t-31.5 -43t-51 -29.5t-69 -11z" />
    <glyph glyph-name="uni0283" unicode="&#x283;" horiz-adv-x="229" 
d="M29 -229q-17 0 -34 3.5t-28 8.5l11 36q9 -3 22.5 -6.5t27.5 -3.5q40 0 52 29.5t12 75.5v679q0 71 28.5 105.5t89.5 34.5q14 0 28 -3.5t24 -8.5l-11 -36q-8 3 -18.5 6.5t-21.5 3.5q-23 0 -37.5 -8t-22.5 -22t-11 -33t-3 -42v-679q0 -71 -26 -105.5t-82 -34.5z" />
    <glyph glyph-name="uni0284" unicode="&#x284;" horiz-adv-x="241" 
d="M35 -229q-17 0 -34 3.5t-28 8.5l11 36q9 -3 22.5 -6.5t27.5 -3.5q40 0 52 29.5t12 75.5v322h-93v29l93 4v324q0 71 28.5 105.5t89.5 34.5q14 0 28 -3.5t24 -8.5l-11 -36q-8 3 -18.5 6.5t-21.5 3.5q-23 0 -37.5 -8t-22.5 -22t-11 -33t-3 -42v-321h89v-33h-89v-325
q0 -71 -26 -105.5t-82 -34.5z" />
    <glyph glyph-name="uni0288" unicode="&#x288;" horiz-adv-x="312" 
d="M223 -183q-35 0 -58 10.5t-37 29.5t-19.5 46t-5.5 59v480h-75v34l76 4l6 139h38v-139h139v-38h-139v-483q0 -23 3.5 -42t12.5 -32.5t24.5 -21t40.5 -7.5q14 0 30.5 5t29.5 10l12 -36q-21 -7 -42 -12.5t-36 -5.5z" />
    <glyph glyph-name="uni0289" unicode="&#x289;" horiz-adv-x="549" 
d="M5 259v29l94 4v188h44v-188h264v188h44v-188h89v-33h-89v-259h-37l-5 80h-2q-35 -42 -74 -67t-89 -25q-75 0 -110 45t-35 139v87h-94zM252 28q43 0 78 23.5t77 74.5v133h-264v-81q0 -77 25.5 -113.5t83.5 -36.5z" />
    <glyph glyph-name="uni028A" unicode="&#x28a;" horiz-adv-x="532" 
d="M266 -12q-51 0 -90.5 18.5t-66.5 50t-41 72.5t-14 85q0 41 8.5 75.5t22 63t30.5 50t34 37.5v2h-107v38h169v-29q-48 -33 -79.5 -90t-31.5 -138q0 -39 10.5 -74.5t31.5 -62.5t52 -43t72 -16q40 0 71 16t52 43t32 62.5t11 74.5q0 81 -31.5 138t-79.5 90v29h168v-38h-106v-2
q17 -16 34 -37.5t30.5 -50t22 -63t8.5 -75.5q0 -44 -14.5 -85t-41.5 -72.5t-66.5 -50t-89.5 -18.5z" />
    <glyph glyph-name="uni028B" unicode="&#x28b;" horiz-adv-x="517" 
d="M255 -12q-35 0 -66 11.5t-54 36.5t-36.5 64t-13.5 94v286h44v-277q0 -48 10.5 -81.5t27.5 -54.5t40 -30.5t49 -9.5q38 0 67 19.5t49 52.5t30.5 78t10.5 96q0 87 -23 134t-71 47q-17 0 -34 -8l-11 38q23 8 52 8q65 0 99.5 -52t34.5 -161q0 -61 -13 -114t-39 -92.5
t-64.5 -62t-88.5 -22.5z" />
    <glyph glyph-name="uni028C" unicode="&#x28c;" horiz-adv-x="434" 
d="M12 0l178 480h52l180 -480h-48l-108 301q-11 35 -24 70.5t-24 67.5h-4q-12 -32 -24.5 -67.5t-24.5 -70.5l-108 -301h-45z" />
    <glyph glyph-name="uni028D" unicode="&#x28d;" horiz-adv-x="685" 
d="M24 0l137 480h58l85 -298q10 -35 18 -68.5t18 -68.5h4q9 35 18 69.5t21 69.5l82 296h54l142 -480h-48l-87 311q-8 33 -16 64.5t-16 63.5h-4q-9 -32 -17.5 -63.5t-17.5 -64.5l-88 -311h-52l-88 311q-9 33 -17.5 64.5t-17.5 63.5h-4q-9 -32 -17.5 -63.5t-17.5 -64.5
l-84 -311h-45z" />
    <glyph glyph-name="uni028E" unicode="&#x28e;" horiz-adv-x="436" 
d="M12 0l201 573q10 30 24.5 58.5t34.5 50.5t45.5 35.5t57.5 13.5q27 0 49 -10l-10 -38q-8 3 -18.5 5.5t-21.5 2.5q-44 0 -74 -36t-49 -91l-24 -75l197 -489h-48l-116 302q-12 30 -25.5 66.5t-26.5 68.5h-4q-11 -32 -22.5 -68t-22.5 -67l-102 -302h-45z" />
    <glyph glyph-name="uni028F" unicode="&#x28f;" horiz-adv-x="385" 
d="M171 0v173l-168 307h48l81 -155q14 -29 29 -55t31 -54h4q15 28 29.5 54t28.5 55l80 155h49l-168 -307v-173h-44z" />
    <glyph glyph-name="uni0290" unicode="&#x290;" horiz-adv-x="404" 
d="M421 -181q-51 0 -74 32t-23 100v49h-297v24l284 418h-253v38h310v-23l-283 -418h283v-83q0 -45 11 -71.5t43 -26.5q12 0 22.5 3t18.5 6l10 -36q-8 -5 -23 -8.5t-29 -3.5z" />
    <glyph glyph-name="uni0291" unicode="&#x291;" horiz-adv-x="418" 
d="M209 -80l-35 7l9.5 38t9.5 35h-166v24l284 418h-253v38h309v-23l-283 -418q31 -1 61 -1h61q56 149 143 149q39 0 61 -22t22 -60q0 -43 -35.5 -74t-107.5 -31h-61q-5 -18 -9.5 -37.5t-9.5 -42.5zM299 38q46 0 70.5 21t24.5 47q0 20 -10.5 33.5t-36.5 13.5
q-27 0 -54.5 -27.5t-50.5 -87.5h57z" />
    <glyph glyph-name="uni0292" unicode="&#x292;" horiz-adv-x="404" 
d="M193 -229q-36 0 -65 6.5t-52 17.5t-41 24t-33 27l26 31q13 -13 29 -25t35.5 -21.5t44 -15t55.5 -5.5q30 0 57 12.5t47.5 35t32.5 54t12 70.5q0 72 -39.5 114t-116.5 42q-22 0 -35.5 -5.5t-30.5 -13.5l-24 31l215 292h-263v38h320v-23l-212 -288q53 10 96 0t73 -35
t46.5 -63.5t16.5 -85.5q0 -52 -16.5 -92t-43.5 -67t-62 -41t-72 -14z" />
    <glyph glyph-name="uni0294" unicode="&#x294;" horiz-adv-x="399" 
d="M156 0v328q89 48 132 98t43 122q0 65 -37 104.5t-107 39.5q-59 0 -97 -24t-63 -54l-26 31q14 15 31.5 30.5t40.5 28t51 20t63 7.5q40 0 75 -12t60.5 -35t40 -57.5t14.5 -79.5q0 -44 -13 -78.5t-36.5 -63.5t-56 -54t-71.5 -49v-302h-44z" />
    <glyph glyph-name="uni0295" unicode="&#x295;" horiz-adv-x="406" 
d="M201 0v302q-38 24 -70.5 49t-56 54t-37 63.5t-13.5 78.5q0 45 15.5 79.5t42.5 57.5t63.5 35t79.5 12q33 0 59.5 -7.5t48 -20t38 -28t30.5 -30.5l-27 -31q-23 30 -58.5 54t-90.5 24q-75 0 -115 -39.5t-40 -104.5q0 -72 43.5 -122t132.5 -98v-328h-45z" />
    <glyph glyph-name="uni0298" unicode="&#x298;" horiz-adv-x="507" 
d="M253 -12q-44 0 -79 21.5t-59 67t-36.5 116.5t-12.5 170q0 177 49 272.5t138 95.5q90 0 139 -95.5t49 -272.5q0 -99 -12.5 -170t-36.5 -116.5t-59 -67t-80 -21.5zM253 27q31 0 57.5 18.5t46 58.5t30 104t10.5 155q0 164 -40.5 246.5t-103.5 82.5q-62 0 -102.5 -83
t-40.5 -246q0 -91 10.5 -155t29.5 -104t45.5 -58.5t57.5 -18.5zM253 325q-15 0 -26 10.5t-11 27.5t11 27t26 10t26.5 -10t11.5 -27t-11.5 -27.5t-26.5 -10.5z" />
    <glyph glyph-name="uni0299" unicode="&#x299;" horiz-adv-x="496" 
d="M92 0v480h173q78 0 122.5 -28t44.5 -90q0 -46 -23 -70t-56 -35v-3q19 -5 37 -13.5t32 -23t23 -34t9 -46.5q0 -70 -49.5 -103.5t-134.5 -33.5h-178zM136 270h112q75 0 107 23.5t32 64.5q0 42 -30.5 64t-99.5 22h-121v-174zM136 36h125q147 0 147 103q0 46 -39.5 70.5
t-115.5 24.5h-117v-198z" />
    <glyph glyph-name="uni029C" unicode="&#x29c;" horiz-adv-x="550" 
d="M92 0v480h44v-208h278v208h44v-480h-44v232h-278v-232h-44z" />
    <glyph glyph-name="uni029D" unicode="&#x29d;" horiz-adv-x="239" 
d="M206 -284q-23 36 -44 66t-41 53q-17 -31 -46.5 -47.5t-72.5 -16.5q-24 0 -43.5 7.5t-33 20t-21 28.5t-7.5 34q0 35 26 57t77 22q50 0 99 -35q3 21 3 43v532h45v-524q0 -48 -10 -82q26 -26 51.5 -61.5t51.5 -78.5zM3 -191q35 0 55 16t31 41q-44 38 -89 38q-32 0 -46.5 -13
t-14.5 -32q0 -22 18.5 -36t45.5 -14zM125 596q-16 0 -28 11t-12 28q0 19 12 29.5t28 10.5q17 0 29 -10.5t12 -29.5q0 -17 -12 -28t-29 -11z" />
    <glyph glyph-name="uni029F" unicode="&#x29f;" horiz-adv-x="399" 
d="M92 0v480h44v-441h237v-39h-281z" />
    <glyph glyph-name="uni02A1" unicode="&#x2a1;" horiz-adv-x="420" 
d="M167 0v290h-162v34l76 4h97q84 48 126 101.5t42 118.5t-37.5 104.5t-107.5 39.5q-59 0 -96.5 -24t-62.5 -54l-27 31q14 15 32 30.5t40.5 28t50.5 20t63 7.5q40 0 75 -12t61 -35t40.5 -57.5t14.5 -79.5q0 -69 -41 -123t-104 -96h153v-38h-189v-290h-44z" />
    <glyph glyph-name="uni02A2" unicode="&#x2a2;" horiz-adv-x="420" 
d="M209 0v290h-189v38h152q-31 21 -57.5 45t-45.5 51t-30 57.5t-11 65.5q0 45 15.5 79.5t42.5 57.5t63.5 35t79.5 12q33 0 59.5 -7.5t48 -20t38 -28t30.5 -30.5l-27 -31q-23 30 -58.5 54t-90.5 24q-75 0 -115 -39.5t-40 -104.5t42 -118.5t126 -101.5h97l76 -4v-34h-162v-290
h-44z" />
    <glyph glyph-name="h.sups" unicode="&#x2b0;" horiz-adv-x="356" 
d="M58 406v472h37v-133l-1 -70q22 23 50.5 39.5t60.5 16.5q57 0 79 -33.5t22 -87.5v-204h-38v197q0 43 -14 69t-59 26q-22 0 -46.5 -13.5t-53.5 -42.5v-236h-37z" />
    <glyph glyph-name="j.sups" unicode="&#x2b2;" horiz-adv-x="157" 
d="M21 256q-14 0 -22.5 1.5t-20.5 6.5l10 32q7 -3 13 -4.5t16 -1.5q26 0 34.5 17.5t8.5 46.5v369h37v-365q0 -53 -19 -77.5t-57 -24.5zM80 796q-14 0 -23 8.5t-9 22.5q0 13 9 22t23 9t23 -9t9 -22q0 -14 -9 -22.5t-23 -8.5z" />
    <glyph glyph-name="r.sups" unicode="&#x2b3;" horiz-adv-x="221" 
d="M58 406v317h29l7 -56h3q19 31 40.5 47.5t50.5 16.5q10 0 19.5 -1.5t15.5 -4.5l-9 -35q-5 2 -13 3t-16 1q-23 0 -46 -16.5t-42 -59.5v-212h-39z" />
    <glyph glyph-name="w.sups" unicode="&#x2b7;" horiz-adv-x="466" 
d="M109 406l-93 317h41l52 -197l23 -87h4l23 87l54 197h40l56 -197l23 -87h4l25 87l51 197h38l-92 -317h-48l-51 186l-25 91h-2l-23 -91l-53 -186h-47z" />
    <glyph glyph-name="y.sups" unicode="&#x2b8;" horiz-adv-x="299" 
d="M54 266q-20 0 -36 6l9 34q13 -6 26 -6q28 0 48 22t31 57l8 24l-132 320h39l74 -188q8 -20 17 -44t18 -49h4q7 24 15 47l16 46l62 188h38l-122 -347q-8 -22 -18 -42t-24 -35t-32 -24t-41 -9z" />
    <glyph glyph-name="uni02B9" unicode="&#x2b9;" horiz-adv-x="219" 
d="M82 486l23 207l43 -2l-10 -70l-27 -136z" />
    <glyph glyph-name="uni02BB" unicode="&#x2bb;" horiz-adv-x="219" 
d="M102 480q-20 0 -32 17.5t-12 49.5q0 54 22.5 92t62.5 64l18 -23q-33 -27 -50 -54.5t-17 -69.5q2 1 8 1q15 0 27.5 -9t12.5 -28t-11.5 -29.5t-28.5 -10.5z" />
    <glyph glyph-name="uni02BC" unicode="&#x2bc;" horiz-adv-x="219" 
d="M76 477l-18 23q33 27 50 54.5t17 69.5q-2 -1 -8 -1q-14 0 -26.5 9t-12.5 28t11 29.5t28 10.5q20 0 32.5 -17.5t12.5 -49.5q0 -54 -22.5 -92t-63.5 -64z" />
    <glyph glyph-name="uni02BE" unicode="&#x2be;" horiz-adv-x="160" 
d="M33 548v25q42 -1 59.5 18t17.5 51q0 31 -17.5 50t-59.5 19v24q51 2 80.5 -23t29.5 -70t-29.5 -70.5t-80.5 -23.5z" />
    <glyph glyph-name="uni02BF" unicode="&#x2bf;" horiz-adv-x="160" 
d="M127 548q-51 -2 -80.5 23.5t-29.5 70.5t29.5 70t80.5 23v-24q-42 0 -59.5 -19t-17.5 -50q0 -32 17.5 -51t59.5 -18v-25z" />
    <glyph glyph-name="uni02C1" unicode="&#x2c1;" horiz-adv-x="279" 
d="M135 406v196q-26 16 -47 32.5t-37 35.5t-24.5 41.5t-8.5 51.5q0 61 39 92.5t97 31.5q45 0 73.5 -18t46.5 -39l-21 -25q-16 20 -39 35t-58 15q-48 0 -74 -24.5t-26 -66.5q0 -46 28 -78t88 -64v-216h-37z" />
    <glyph glyph-name="circumflex" unicode="&#x2c6;" horiz-adv-x="535" 
d="M129 593l117 144h42l117 -144l-22 -21l-114 126h-4l-114 -126z" />
    <glyph glyph-name="caron" unicode="&#x2c7;" horiz-adv-x="535" 
d="M246 573l-117 144l22 20l114 -125h4l114 125l22 -20l-117 -144h-42z" />
    <glyph glyph-name="uni02C8" unicode="&#x2c8;" horiz-adv-x="95" 
d="M32 529l-6 190h43l-6 -190h-31z" />
    <glyph glyph-name="uni02C9" unicode="&#x2c9;" horiz-adv-x="259" 
d="M6 606v36h246v-36h-246z" />
    <glyph glyph-name="uni02CA" unicode="&#x2ca;" horiz-adv-x="218" 
d="M78 574l-24 23l134 157l34 -29z" />
    <glyph glyph-name="uni02CB" unicode="&#x2cb;" horiz-adv-x="218" 
d="M136 574l-144 151l34 29l134 -157z" />
    <glyph glyph-name="uni02CC" unicode="&#x2cc;" horiz-adv-x="95" 
d="M27 -265l6 190h30l6 -190h-42z" />
    <glyph glyph-name="uni02D0" unicode="&#x2d0;" horiz-adv-x="219" 
d="M54 0l51 107h9l51 -107h-111zM105 342l-51 106h111l-51 -106h-9z" />
    <glyph glyph-name="uni02D1" unicode="&#x2d1;" horiz-adv-x="219" 
d="M105 259l-51 106h111l-51 -106h-9z" />
    <glyph glyph-name="breve" unicode="&#x2d8;" horiz-adv-x="535" 
d="M267 570q-39 0 -66 14t-44.5 35.5t-26.5 47.5t-12 51l33 5q3 -21 11.5 -42t22.5 -38.5t34.5 -28t47.5 -10.5t47.5 10.5t34.5 28t22.5 38.5t11.5 42l33 -5q-3 -25 -12 -51t-26.5 -47.5t-44.5 -35.5t-66 -14z" />
    <glyph glyph-name="dotaccent" unicode="&#x2d9;" horiz-adv-x="535" 
d="M267 596q-17 0 -27.5 11t-10.5 30q0 17 10.5 28t27.5 11t27.5 -11t10.5 -28q0 -19 -10.5 -30t-27.5 -11z" />
    <glyph glyph-name="ring" unicode="&#x2da;" horiz-adv-x="535" 
d="M267 548q-42 0 -69.5 26.5t-27.5 68.5q0 43 27.5 69.5t69.5 26.5t69.5 -26.5t27.5 -69.5q0 -42 -27.5 -68.5t-69.5 -26.5zM267 574q27 0 46 18.5t19 50.5t-19 51t-46 19t-46 -19t-19 -51t19 -50.5t46 -18.5z" />
    <glyph glyph-name="ogonek" unicode="&#x2db;" horiz-adv-x="535" 
d="M294 -203q-35 0 -58 20t-23 61q0 38 22 71t49 55h44q-35 -26 -56 -57t-21 -63q0 -26 15 -39t34 -13q25 0 43 14l16 -26q-11 -10 -30 -16.5t-35 -6.5z" />
    <glyph glyph-name="tilde" unicode="&#x2dc;" horiz-adv-x="535" 
d="M343 579q-29 0 -48.5 15t-35.5 33t-31.5 33t-36.5 15q-27 0 -39.5 -27t-14.5 -66l-34 2q1 24 6 46.5t15.5 40t27 28.5t40.5 11q28 0 47.5 -15t35.5 -33t32 -33t37 -15q26 0 38.5 27.5t14.5 65.5l34 -2q-2 -23 -6.5 -45.5t-15 -40.5t-26.5 -29t-40 -11z" />
    <glyph glyph-name="hungarumlaut" unicode="&#x2dd;" horiz-adv-x="535" 
d="M217 569l-27 13l86 168l35 -19zM351 569l-27 13l86 168l35 -19z" />
    <glyph glyph-name="uni02DE" unicode="&#x2de;" horiz-adv-x="128" 
d="M90 232q-30 0 -51.5 22t-31.5 73l-93 -34v37l121 48q4 -35 10 -57t13 -34t16 -16t19 -4q12 0 21.5 5t16.5 11l17 -28q-10 -8 -24 -15.5t-34 -7.5z" />
    <glyph glyph-name="uni02E0" unicode="&#x2e0;" horiz-adv-x="297" 
d="M149 254q-30 0 -46 19t-16 49q0 23 10.5 47.5t27.5 62.5l-117 291h39l69 -185q8 -22 16 -41.5t16 -40.5h3q8 21 16 40.5t16 41.5l69 185h37l-115 -292q17 -37 27.5 -61.5t10.5 -47.5q0 -30 -16 -49t-47 -19zM149 282q15 0 21.5 11t6.5 27q0 19 -7 42t-19 47h-3
q-12 -24 -19 -48t-7 -41q0 -16 6.5 -27t20.5 -11z" />
    <glyph glyph-name="l.sups" unicode="&#x2e1;" horiz-adv-x="162" 
d="M106 398q-26 0 -37 15.5t-11 45.5v419h37v-425q0 -22 16 -22h6t8 2l7 -31q-5 -2 -11 -3t-15 -1z" />
    <glyph glyph-name="s.sups" unicode="&#x2e2;" horiz-adv-x="275" 
d="M144 398q-37 0 -68.5 13t-54.5 31l21 27q22 -17 46 -28t56 -11q33 0 51.5 17t18.5 40q0 13 -6.5 23t-17.5 17.5t-25 13.5t-28 11q-18 7 -35.5 14.5t-32 18.5t-23.5 26t-9 36q0 16 6.5 31t19.5 27t32 19t44 7q31 0 55.5 -9.5t43.5 -23.5l-22 -27q-18 14 -34.5 21t-42.5 7
q-32 0 -48 -15.5t-16 -34.5q0 -14 6 -23t16.5 -16t24 -12.5t28.5 -11.5q18 -7 36.5 -14t33 -17.5t23.5 -25.5t9 -37q0 -42 -30 -68t-78 -26z" />
    <glyph glyph-name="x.sups" unicode="&#x2e3;" horiz-adv-x="283" 
d="M8 406l111 166l-101 151h43l49 -74l33 -52h4l31 52l46 74h42l-100 -154l107 -163h-43l-51 80l-37 57h-4l-38 -57l-51 -80h-41z" />
    <glyph glyph-name="uni0300" unicode="&#x300;" 
d="M29 574l-144 151l34 29l134 -157z" />
    <glyph glyph-name="uni0301" unicode="&#x301;" 
d="M-29 574l-24 23l134 157l34 -29z" />
    <glyph glyph-name="uni0302" unicode="&#x302;" 
d="M-138 593l117 144h42l117 -144l-22 -21l-114 126h-4l-114 -126z" />
    <glyph glyph-name="uni0303" unicode="&#x303;" 
d="M76 579q-29 0 -48.5 15t-35.5 33t-31.5 33t-36.5 15q-27 0 -39.5 -27t-14.5 -66l-34 2q1 24 6 46.5t15.5 40t27 28.5t40.5 11q28 0 47.5 -15t35.5 -33t32 -33t37 -15q26 0 38.5 27.5t14.5 65.5l34 -2q-2 -23 -6.5 -45.5t-15 -40.5t-26.5 -29t-40 -11z" />
    <glyph glyph-name="uni0304" unicode="&#x304;" 
d="M-123 606v36h246v-36h-246z" />
    <glyph glyph-name="uni0305" unicode="&#x305;" 
d="M-123 606v36h246v-36h-246z" />
    <glyph glyph-name="uni0306" unicode="&#x306;" 
d="M0 570q-39 0 -66 14t-44.5 35.5t-26.5 47.5t-12 51l33 5q3 -21 11.5 -42t22.5 -38.5t34.5 -28t47.5 -10.5t47.5 10.5t34.5 28t22.5 38.5t11.5 42l33 -5q-3 -25 -12 -51t-26.5 -47.5t-44.5 -35.5t-66 -14z" />
    <glyph glyph-name="uni0307" unicode="&#x307;" 
d="M0 596q-17 0 -27.5 11t-10.5 30q0 17 10.5 28t27.5 11t27.5 -11t10.5 -28q0 -19 -10.5 -30t-27.5 -11z" />
    <glyph glyph-name="uni0308" unicode="&#x308;" 
d="M-89 598q-16 0 -26.5 10.5t-10.5 26.5t10.5 26.5t26.5 10.5t26.5 -10.5t10.5 -26.5t-10.5 -26.5t-26.5 -10.5zM89 598q-16 0 -26.5 10.5t-10.5 26.5t10.5 26.5t26.5 10.5t26.5 -10.5t10.5 -26.5t-10.5 -26.5t-26.5 -10.5z" />
    <glyph glyph-name="uni0309" unicode="&#x309;" 
d="M-25 575l-8 28q27 8 45 20.5t18 34.5q0 46 -85 49l3 34q25 -1 47.5 -5.5t39 -14t26 -24t9.5 -34.5t-8 -34t-21.5 -24.5t-30.5 -17.5t-35 -12z" />
    <glyph glyph-name="uni030A" unicode="&#x30a;" 
d="M0 548q-42 0 -69.5 26.5t-27.5 68.5q0 43 27.5 69.5t69.5 26.5t69.5 -26.5t27.5 -69.5q0 -42 -27.5 -68.5t-69.5 -26.5zM0 574q27 0 46 18.5t19 50.5t-19 51t-46 19t-46 -19t-19 -51t19 -50.5t46 -18.5z" />
    <glyph glyph-name="uni030B" unicode="&#x30b;" 
d="M-50 569l-27 13l86 168l35 -19zM84 569l-27 13l86 168l35 -19z" />
    <glyph glyph-name="uni030C" unicode="&#x30c;" 
d="M-21 573l-117 144l22 20l114 -125h4l114 125l22 -20l-117 -144h-42z" />
    <glyph glyph-name="uni030F" unicode="&#x30f;" 
d="M-84 569l-94 162l35 19l86 -168zM50 569l-94 162l35 19l86 -168z" />
    <glyph glyph-name="uni0311" unicode="&#x311;" 
d="M-116 569l-33 6q3 24 12 50t26.5 47.5t44.5 35.5t66 14t66 -14t44.5 -35.5t26.5 -47.5t12 -50l-33 -6q-3 21 -11.5 42.5t-22.5 38.5t-34.5 27.5t-47.5 10.5t-47.5 -10.5t-34.5 -27.5t-22.5 -38.5t-11.5 -42.5z" />
    <glyph glyph-name="uni0312" unicode="&#x312;" 
d="M-2 551q-41 0 -41 61q0 32 16 61t54 49l15 -24q-29 -17 -41.5 -36.5t-12.5 -42.5q3 1 8 1q12 0 23.5 -7.5t11.5 -24.5q0 -20 -9.5 -28.5t-23.5 -8.5z" />
    <glyph glyph-name="uni0313" unicode="&#x313;" 
d="M-27 550l-15 25q29 16 41 36t12 43q-3 -1 -8 -1q-11 0 -22.5 7.5t-11.5 24.5q0 20 9.5 28.5t23.5 8.5q41 0 41 -61q0 -32 -16 -61.5t-54 -49.5z" />
    <glyph glyph-name="uni0318" unicode="&#x318;" 
d="M77 -244h-34v75h-112v33h112v75h34v-183z" />
    <glyph glyph-name="uni0319" unicode="&#x319;" 
d="M69 -169h-112v-75h-34v183h34v-75h112v-33z" />
    <glyph glyph-name="uni031A" unicode="&#x31a;" 
d="M77 572h-34v103h-112v33h146v-136z" />
    <glyph glyph-name="uni031B" unicode="&#x31b;" 
d="M-2 438l-6 30q48 8 71 31.5t23 56.5q0 26 -14 55l38 20q9 -20 14 -35t5 -37q0 -52 -37 -82t-94 -39z" />
    <glyph glyph-name="uni031C" unicode="&#x31c;" 
d="M50 -257q-51 -2 -80.5 23.5t-29.5 70.5t29.5 70t80.5 23v-24q-42 0 -59.5 -19t-17.5 -50q0 -32 17.5 -51t59.5 -18v-25z" />
    <glyph glyph-name="uni031D" unicode="&#x31d;" 
d="M89 -200h-178v33h72v106h34v-106h72v-33z" />
    <glyph glyph-name="uni031E" unicode="&#x31e;" 
d="M89 -138h-72v-106h-34v106h-72v33h178v-33z" />
    <glyph glyph-name="uni031F" unicode="&#x31f;" 
d="M89 -169h-72v-75h-34v75h-72v33h72v75h34v-75h72v-33z" />
    <glyph glyph-name="uni0320" unicode="&#x320;" 
d="M-89 -169v33h178v-33h-178z" />
    <glyph glyph-name="uni0323" unicode="&#x323;" 
d="M0 -194q-17 0 -27.5 11t-10.5 30q0 17 10.5 28t27.5 11t27.5 -11t10.5 -28q0 -19 -10.5 -30t-27.5 -11z" />
    <glyph glyph-name="uni0324" unicode="&#x324;" 
d="M-89 -191q-16 0 -26.5 10.5t-10.5 26.5t10.5 26.5t26.5 10.5t26.5 -10.5t10.5 -26.5t-10.5 -26.5t-26.5 -10.5zM89 -191q-16 0 -26.5 10.5t-10.5 26.5t10.5 26.5t26.5 10.5t26.5 -10.5t10.5 -26.5t-10.5 -26.5t-26.5 -10.5z" />
    <glyph glyph-name="uni0325" unicode="&#x325;" 
d="M0 -256q-42 0 -69.5 26.5t-27.5 68.5q0 43 27.5 69.5t69.5 26.5t69.5 -26.5t27.5 -69.5q0 -42 -27.5 -68.5t-69.5 -26.5zM0 -230q27 0 46 18.5t19 50.5t-19 51t-46 19t-46 -19t-19 -51t19 -50.5t46 -18.5z" />
    <glyph glyph-name="uni0326" unicode="&#x326;" 
d="M-77 -219l-7 30q65 4 89 17t24 35q0 23 -20.5 33.5t-56.5 13.5l13 29q57 -8 80 -24.5t23 -48.5q0 -39 -37 -59.5t-108 -25.5z" />
    <glyph glyph-name="uni0327" unicode="&#x327;" 
d="M-77 -219l-7 30q65 4 89 17t24 36q0 22 -18 33.5t-60 17.5l41 87h35l-30 -67q32 -8 51.5 -23.5t19.5 -45.5q0 -39 -37 -59.5t-108 -25.5z" />
    <glyph glyph-name="uni0328" unicode="&#x328;" 
d="M27 -203q-35 0 -58 20t-23 61q0 38 22 71t49 55h44q-35 -26 -56 -57t-21 -63q0 -26 15 -39t34 -13q25 0 43 14l16 -26q-11 -10 -30 -16.5t-35 -6.5z" />
    <glyph glyph-name="uni0329" unicode="&#x329;" 
d="M-21 -265l6 190h30l6 -190h-42z" />
    <glyph glyph-name="uni032A" unicode="&#x32a;" 
d="M86 -229v111h-172v-111h-31v144h234v-144h-31z" />
    <glyph glyph-name="uni032C" unicode="&#x32c;" 
d="M-21 -221l-117 144l22 20l114 -125h4l114 125l22 -20l-117 -144h-42z" />
    <glyph glyph-name="uni032E" unicode="&#x32e;" 
d="M0 -230q-39 0 -66 14t-44.5 35.5t-26.5 47.5t-12 51l33 5q3 -21 11.5 -42t22.5 -38.5t34.5 -28t47.5 -10.5t47.5 10.5t34.5 28t22.5 38.5t11.5 42l33 -5q-3 -25 -12 -51t-26.5 -47.5t-44.5 -35.5t-66 -14z" />
    <glyph glyph-name="uni032F" unicode="&#x32f;" 
d="M-116 -231l-33 6q3 24 12 50t26.5 47.5t44.5 35.5t66 14t66 -14t44.5 -35.5t26.5 -47.5t12 -50l-33 -6q-3 21 -11.5 42.5t-22.5 38.5t-34.5 27.5t-47.5 10.5t-47.5 -10.5t-34.5 -27.5t-22.5 -38.5t-11.5 -42.5z" />
    <glyph glyph-name="uni0330" unicode="&#x330;" 
d="M76 -220q-29 0 -48.5 15t-35.5 33t-31.5 33t-36.5 15q-27 0 -39.5 -27t-14.5 -66l-34 2q1 24 6 46.5t15.5 40t27 28.5t40.5 11q28 0 47.5 -15t35.5 -33t32 -33t37 -15q26 0 38.5 27.5t14.5 65.5l34 -2q-2 -23 -6.5 -45.5t-15 -40.5t-26.5 -29t-40 -11z" />
    <glyph glyph-name="uni0331" unicode="&#x331;" 
d="M-123 -159v36h246v-36h-246z" />
    <glyph glyph-name="uni0334" unicode="&#x334;" 
d="M76 195q-29 0 -48.5 15t-35.5 33t-31.5 33t-36.5 15q-27 0 -39.5 -27t-14.5 -66l-34 2q1 24 6 46.5t15.5 40t27 28.5t40.5 11q28 0 47.5 -15t35.5 -33t32 -33t37 -15q26 0 38.5 27.5t14.5 65.5l34 -2q-2 -23 -6.5 -45.5t-15 -40.5t-26.5 -29t-40 -11z" />
    <glyph glyph-name="uni0339" unicode="&#x339;" 
d="M-50 -257v25q42 -1 59.5 18t17.5 51q0 31 -17.5 50t-59.5 19v24q51 2 80.5 -23t29.5 -70t-29.5 -70.5t-80.5 -23.5z" />
    <glyph glyph-name="uni033A" unicode="&#x33a;" 
d="M-117 -232v144h31v-110h172v110h31v-144h-234z" />
    <glyph glyph-name="uni033B" unicode="&#x33b;" 
d="M-117 -236v152h234v-152h-234zM-86 -204h172v89h-172v-89z" />
    <glyph glyph-name="uni033C" unicode="&#x33c;" 
d="M-156 -224q-1 77 22 109t63 32q24 0 43.5 -13t26.5 -47h2q7 34 26.5 47t43.5 13q40 0 63 -32t22 -109l-32 -3q0 34 -4 55.5t-11 34t-17.5 17.5t-22.5 5q-52 0 -52 -95v-16h-34v16q0 95 -52 95q-13 0 -23 -5t-17 -17.5t-11 -34t-4 -55.5z" />
    <glyph glyph-name="uni033D" unicode="&#x33d;" 
d="M-51 564l-24 23l51 51l-51 51l24 24l51 -51l51 51l24 -24l-51 -51l51 -51l-24 -23l-51 51z" />
    <glyph glyph-name="uni0342" unicode="&#x342;" 
d="M76 579q-29 0 -48.5 15t-35.5 33t-31.5 33t-36.5 15q-27 0 -39.5 -27t-14.5 -66l-34 2q1 24 6 46.5t15.5 40t27 28.5t40.5 11q28 0 47.5 -15t35.5 -33t32 -33t37 -15q26 0 38.5 27.5t14.5 65.5l34 -2q-2 -23 -6.5 -45.5t-15 -40.5t-26.5 -29t-40 -11z" />
    <glyph glyph-name="uni0345" unicode="&#x345;" 
d="M38 -191q-27 0 -42 16.5t-15 54.5v54h39q-1 -14 -1.5 -30.5t-0.5 -29.5q0 -16 8 -23t18 -7q5 0 9 0.5t16 3.5l7 -33q-10 -3 -17 -4.5t-21 -1.5z" />
    <glyph glyph-name="uni0361" unicode="&#x361;" 
d="M-437 559l-16 26q100 62 211 95.5t242 33.5t242 -33.5t211 -95.5l-16 -26q-95 60 -207 89.5t-230 29.5t-230 -29.5t-207 -89.5z" />
    <glyph glyph-name="uni0374" unicode="&#x374;" horiz-adv-x="219" 
d="M82 485l23 208h43l-10 -72l-27 -136h-29z" />
    <glyph glyph-name="uni0375" unicode="&#x375;" horiz-adv-x="219" 
d="M71 0l10 72l27 136h29l-23 -208h-43z" />
    <glyph glyph-name="uni037A" unicode="&#x37a;" horiz-adv-x="535" 
d="M314 -191q-27 0 -42 16.5t-15 54.5v54h39q-1 -14 -1.5 -30.5t-0.5 -29.5q0 -16 8 -23t18 -7q5 0 9 0.5t16 3.5l7 -33q-10 -3 -17 -4.5t-21 -1.5z" />
    <glyph glyph-name="uni037E" unicode="&#x37e;" horiz-adv-x="219" 
d="M110 370q-17 0 -30 12t-13 33q0 22 13 34t30 12t29.5 -12t12.5 -34q0 -21 -12.5 -33t-29.5 -12zM62 -155l-14 30q35 18 56 49t21 72q-4 -1 -12 -1q-17 0 -29.5 11t-12.5 31t13 31t30 11q23 0 37 -19t14 -52q0 -55 -29 -97t-74 -66z" />
    <glyph glyph-name="tonos" unicode="&#x384;" horiz-adv-x="535" 
d="M246 567l48 190l51 -10l-66 -188z" />
    <glyph glyph-name="dieresistonos" unicode="&#x385;" horiz-adv-x="535" 
d="M243 568l49 190l46 -10l-66 -187zM174 602q-15 0 -24 9t-9 24t9 24t24 9q14 0 23.5 -9t9.5 -24t-9.5 -24t-23.5 -9zM378 602q-14 0 -23.5 9t-9.5 24t9.5 24t23.5 9q15 0 24 -9t9 -24t-9 -24t-24 -9z" />
    <glyph glyph-name="Alphatonos" unicode="&#x386;" horiz-adv-x="532" 
d="M194 388l-42 -123h234l-42 123q-20 59 -38 113t-35 115h-4q-17 -61 -35 -115t-38 -113zM14 0l232 659h46l232 -659h-48l-77 226h-261l-78 -226h-46zM13 486l30 184l47 -7l-44 -184z" />
    <glyph glyph-name="anoteleia" unicode="&#x387;" horiz-adv-x="219" 
d="M110 370q-17 0 -30 12t-13 33q0 22 13 34t30 12t29.5 -12t12.5 -34q0 -21 -12.5 -33t-29.5 -12z" />
    <glyph glyph-name="Epsilontonos" unicode="&#x388;" horiz-adv-x="547" 
d="M129 0v659h361v-40h-315v-249h264v-40h-264v-290h325v-40h-371zM-23 486l30 184l47 -7l-44 -184z" />
    <glyph glyph-name="Etatonos" unicode="&#x389;" horiz-adv-x="671" 
d="M129 0v659h46v-289h353v289h46v-659h-46v330h-353v-330h-46zM-23 486l30 184l47 -7l-44 -184z" />
    <glyph glyph-name="Iotatonos" unicode="&#x38a;" horiz-adv-x="272" 
d="M129 0v659h46v-659h-46zM-23 486l30 184l47 -7l-44 -184z" />
    <glyph glyph-name="Omicrontonos" unicode="&#x38c;" horiz-adv-x="672" 
d="M346 -12q-59 0 -109 24.5t-86 69.5t-56 108.5t-20 141.5t20 140.5t56 107t86 68t109 23.5q60 0 110 -23.5t86 -68t56 -107t20 -140.5t-20 -141.5t-56 -108.5t-86 -69.5t-110 -24.5zM346 30q50 0 91 21.5t70.5 61t45.5 95t16 124.5q0 68 -16 123t-45.5 93.5t-70.5 59.5
t-91 21t-91.5 -21t-70.5 -59.5t-45 -93.5t-16 -123q0 -69 16 -124.5t45 -95t70.5 -61t91.5 -21.5zM-23 486l30 184l47 -7l-44 -184z" />
    <glyph glyph-name="Upsilontonos" unicode="&#x38e;" horiz-adv-x="539" 
d="M292 0v267l-197 392h49l100 -206q17 -36 33.5 -71t36.5 -71h4q19 36 37 71t34 71l100 206h47l-198 -392v-267h-46zM-23 486l30 184l47 -7l-44 -184z" />
    <glyph glyph-name="Omegatonos" unicode="&#x38f;" horiz-adv-x="676" 
d="M66 0v39h143v4q-24 23 -47.5 53t-42 67.5t-30 83t-11.5 100.5q0 70 19 129t54.5 102.5t86 68t112.5 24.5t112 -24.5t85.5 -68t54.5 -102.5t19 -129q0 -55 -11.5 -100.5t-30 -83t-42 -67.5t-47.5 -53v-4h143v-39h-213v34q30 21 57.5 50.5t49 68t34 87t12.5 107.5
q0 60 -15 111.5t-43.5 89.5t-70 59.5t-94.5 21.5t-94.5 -21.5t-70.5 -59.5t-44 -89.5t-15 -111.5q0 -59 12.5 -107.5t34 -87t49 -68t57.5 -50.5v-34h-213zM-23 486l30 184l47 -7l-44 -184z" />
    <glyph glyph-name="iotadieresistonos" unicode="&#x390;" horiz-adv-x="239" 
d="M157 -12q-65 0 -65 82v410h45q-3 -210 -3 -416q0 -19 8 -28t21 -9q11 0 29 6l7 -36q-8 -4 -18 -6.5t-24 -2.5zM82 568l49 190l46 -10l-66 -187zM13 602q-15 0 -24 9t-9 24t9 24t24 9q14 0 23.5 -9t9.5 -24t-9.5 -24t-23.5 -9zM217 602q-14 0 -23.5 9t-9.5 24t9.5 24
t23.5 9q15 0 24 -9t9 -24t-9 -24t-24 -9z" />
    <glyph glyph-name="Alpha" unicode="&#x391;" horiz-adv-x="526" 
d="M188 388l-42 -123h234l-42 123q-20 59 -38 113t-35 115h-4q-17 -61 -35 -115t-38 -113zM8 0l232 659h46l232 -659h-48l-77 226h-261l-78 -226h-46z" />
    <glyph glyph-name="Beta" unicode="&#x392;" horiz-adv-x="578" 
d="M97 0v659h178q100 0 159 -38.5t59 -121.5q0 -52 -26 -90.5t-76 -53.5v-4q64 -11 103 -50.5t39 -108.5q0 -48 -17.5 -84t-49.5 -60t-77 -36t-101 -12h-191zM143 369h114q101 0 145.5 33.5t44.5 91.5q0 70 -47 98.5t-138 28.5h-119v-252zM143 38h133q99 0 155.5 37
t56.5 116q0 72 -55 106t-157 34h-133v-293z" />
    <glyph glyph-name="Gamma" unicode="&#x393;" horiz-adv-x="485" 
d="M97 0v659h359v-40h-313v-619h-46z" />
    <glyph glyph-name="uni0394" unicode="&#x394;" horiz-adv-x="557" 
d="M27 0v27l228 632h48l227 -632v-27h-503zM78 40h401l-122 346l-76 221h-4l-77 -221z" />
    <glyph glyph-name="Epsilon" unicode="&#x395;" horiz-adv-x="515" 
d="M97 0v659h361v-40h-315v-249h264v-40h-264v-290h325v-40h-371z" />
    <glyph glyph-name="Zeta" unicode="&#x396;" horiz-adv-x="538" 
d="M50 0v27l379 592h-346v40h404v-27l-380 -592h383v-40h-440z" />
    <glyph glyph-name="Eta" unicode="&#x397;" horiz-adv-x="639" 
d="M97 0v659h46v-289h353v289h46v-659h-46v330h-353v-330h-46z" />
    <glyph glyph-name="Theta" unicode="&#x398;" horiz-adv-x="652" 
d="M205 330v40h242v-40h-242zM326 -12q-59 0 -109 24.5t-86 69.5t-56 108.5t-20 141.5t20 140.5t56 107t86 68t109 23.5q60 0 110 -23.5t86 -68t56 -107t20 -140.5t-20 -141.5t-56 -108.5t-86 -69.5t-110 -24.5zM326 30q50 0 91 21.5t70.5 61t45.5 95t16 124.5q0 68 -16 123
t-45.5 93.5t-70.5 59.5t-91 21t-91.5 -21t-70.5 -59.5t-45 -93.5t-16 -123q0 -69 16 -124.5t45 -95t70.5 -61t91.5 -21.5z" />
    <glyph glyph-name="Iota" unicode="&#x399;" horiz-adv-x="240" 
d="M97 0v659h46v-659h-46z" />
    <glyph glyph-name="Kappa" unicode="&#x39a;" horiz-adv-x="558" 
d="M97 0v659h46v-366h2l319 366h55l-210 -244l239 -415h-53l-218 380l-134 -153v-227h-46z" />
    <glyph glyph-name="Lambda" unicode="&#x39b;" horiz-adv-x="491" 
d="M4 0l216 659h49l218 -659h-49l-122 385q-9 30 -17.5 57.5t-17 53.5t-17 53t-18.5 57h-4q-10 -30 -18.5 -57t-16.5 -53t-16.5 -53.5t-17.5 -57.5l-122 -385h-47z" />
    <glyph glyph-name="Mu" unicode="&#x39c;" horiz-adv-x="706" 
d="M97 0v659h65l138 -387q13 -36 26 -72.5t26 -73.5h4q13 37 25 73.5t25 72.5l137 387h66v-659h-45v433q0 41 2 88.5t4 89.5h-4l-51 -147l-142 -392h-40l-143 392l-52 147h-4q2 -42 4 -89.5t2 -88.5v-433h-43z" />
    <glyph glyph-name="Nu" unicode="&#x39d;" horiz-adv-x="636" 
d="M97 0v659h48l278 -465l74 -131h4l-4 96t-2 96v404h44v-659h-48l-278 465l-74 131h-4q2 -48 4 -93.5t2 -93.5v-409h-44z" />
    <glyph glyph-name="Xi" unicode="&#x39e;" horiz-adv-x="510" 
d="M47 0v40h417v-40h-417zM125 330v40h260v-40h-260zM57 619v40h397v-40h-397z" />
    <glyph glyph-name="Omicron" unicode="&#x39f;" horiz-adv-x="652" 
d="M326 -12q-59 0 -109 24.5t-86 69.5t-56 108.5t-20 141.5t20 140.5t56 107t86 68t109 23.5q60 0 110 -23.5t86 -68t56 -107t20 -140.5t-20 -141.5t-56 -108.5t-86 -69.5t-110 -24.5zM326 30q50 0 91 21.5t70.5 61t45.5 95t16 124.5q0 68 -16 123t-45.5 93.5t-70.5 59.5
t-91 21t-91.5 -21t-70.5 -59.5t-45 -93.5t-16 -123q0 -69 16 -124.5t45 -95t70.5 -61t91.5 -21.5z" />
    <glyph glyph-name="Pi" unicode="&#x3a0;" horiz-adv-x="634" 
d="M97 0v659h440v-659h-46v619h-348v-619h-46z" />
    <glyph glyph-name="Rho" unicode="&#x3a1;" horiz-adv-x="549" 
d="M97 0v659h166q56 0 100.5 -9.5t75 -31.5t47 -57t16.5 -86q0 -97 -62 -144.5t-173 -47.5h-124v-283h-46zM143 322h113q101 0 150 36t49 117q0 83 -50.5 114t-152.5 31h-109v-298z" />
    <glyph glyph-name="Sigma" unicode="&#x3a3;" horiz-adv-x="531" 
d="M47 0v27l240 308l-235 297v27h410v-40h-350l223 -283l-227 -296h385v-40h-446z" />
    <glyph glyph-name="Tau" unicode="&#x3a4;" horiz-adv-x="524" 
d="M239 0v619h-210v40h466v-40h-210v-619h-46z" />
    <glyph glyph-name="Upsilon" unicode="&#x3a5;" horiz-adv-x="447" 
d="M200 0v267l-197 392h49l100 -206q17 -36 33.5 -71t36.5 -71h4q19 36 37 71t34 71l100 206h47l-198 -392v-267h-46z" />
    <glyph glyph-name="Phi" unicode="&#x3a6;" horiz-adv-x="695" 
d="M95 332q0 -48 16 -87.5t46 -68t73 -45t96 -17.5v431q-53 -1 -96 -16.5t-73 -43.5t-46 -66.5t-16 -86.5zM600 332q0 48 -16 86.5t-46 66.5t-73 43.5t-96 16.5v-431q53 1 96 17.5t73 45t46 68t16 87.5zM326 -22v98q-63 1 -114.5 20t-87.5 52t-56 80t-20 104t20 103t56 78.5
t87.5 50.5t114.5 19v98h43v-98q63 -1 114.5 -19t87.5 -50.5t56 -78.5t20 -103t-20 -104t-56 -80t-87.5 -52t-114.5 -20v-98h-43z" />
    <glyph glyph-name="Chi" unicode="&#x3a7;" horiz-adv-x="482" 
d="M17 0l198 341l-184 318h50l108 -194q14 -23 25.5 -43t28.5 -47h4q14 27 24.5 47t24.5 43l108 194h47l-184 -320l198 -339h-50l-115 202q-14 25 -28.5 50t-32.5 55h-4q-16 -30 -29 -55t-27 -50l-115 -202h-47z" />
    <glyph glyph-name="Psi" unicode="&#x3a8;" horiz-adv-x="668" 
d="M311 0v260q-115 2 -178 59t-63 178v162h45v-161q0 -194 196 -199v360h45v-360q196 3 196 199v161h46v-162q0 -121 -63.5 -178t-178.5 -59v-260h-45z" />
    <glyph glyph-name="uni03A9" unicode="&#x3a9;" horiz-adv-x="659" 
d="M46 0v39h143v4q-24 23 -47.5 53t-42 67.5t-30 83t-11.5 100.5q0 70 19 129t54.5 102.5t86 68t112.5 24.5t112 -24.5t85.5 -68t54.5 -102.5t19 -129q0 -55 -11.5 -100.5t-30 -83t-42 -67.5t-47.5 -53v-4h143v-39h-213v34q30 21 57.5 50.5t49 68t34 87t12.5 107.5
q0 60 -15 111.5t-43.5 89.5t-70 59.5t-94.5 21.5t-94.5 -21.5t-70.5 -59.5t-44 -89.5t-15 -111.5q0 -59 12.5 -107.5t34 -87t49 -68t57.5 -50.5v-34h-213z" />
    <glyph glyph-name="Iotadieresis" unicode="&#x3aa;" horiz-adv-x="240" 
d="M97 0v659h46v-659h-46zM22 725q-16 0 -26 9.5t-10 26.5t10 27t26 10t26.5 -10t10.5 -27t-10.5 -26.5t-26.5 -9.5zM218 725q-16 0 -26.5 9.5t-10.5 26.5t10.5 27t26.5 10t26 -10t10 -27t-10 -26.5t-26 -9.5z" />
    <glyph glyph-name="Upsilondieresis" unicode="&#x3ab;" horiz-adv-x="447" 
d="M200 0v267l-197 392h49l100 -206q17 -36 33.5 -71t36.5 -71h4q19 36 37 71t34 71l100 206h47l-198 -392v-267h-46zM125 725q-16 0 -26 9.5t-10 26.5t10 27t26 10t26.5 -10t10.5 -27t-10.5 -26.5t-26.5 -9.5zM321 725q-16 0 -26.5 9.5t-10.5 26.5t10.5 27t26.5 10t26 -10
t10 -27t-10 -26.5t-26 -9.5z" />
    <glyph glyph-name="alphatonos" unicode="&#x3ac;" horiz-adv-x="540" 
d="M232 -12q-40 0 -73 15t-57 45t-37 75t-13 105q0 63 17 112t46 83t67 51.5t79 17.5q24 0 48 -7.5t45 -24.5t38 -44.5t26 -67.5h3l23 132h44q-10 -51 -20.5 -106t-19 -108.5t-14 -101.5t-5.5 -84q0 -24 14 -38.5t34 -14.5q9 0 18 2.5t17 5.5l8 -36q-8 -4 -20 -7.5t-29 -3.5
q-38 0 -61.5 27t-15.5 81h-3q-59 -108 -159 -108zM238 27q28 0 55.5 14t49 38.5t35.5 56.5t17 68l8 94q-12 50 -28.5 80.5t-35.5 47t-39 22t-38 5.5q-32 0 -61.5 -15t-52 -43.5t-36.5 -70.5t-14 -96q0 -93 37 -147t103 -54zM257 567l48 190l51 -10l-66 -188z" />
    <glyph glyph-name="epsilontonos" unicode="&#x3ad;" horiz-adv-x="435" 
d="M242 -12q-87 0 -138.5 39t-51.5 103q0 27 8.5 47.5t23 35.5t33 25t38.5 15v4q-38 14 -58 44t-20 67q0 31 13.5 54t37 38.5t54 23.5t65.5 8q44 0 80.5 -14.5t68.5 -39.5l-20 -32q-31 23 -62 35.5t-68 12.5q-25 0 -47.5 -5.5t-39 -16.5t-26.5 -28t-10 -40q0 -40 31.5 -67
t103.5 -27q14 0 25.5 0.5t30.5 2.5v-41q-21 2 -37 2h-33q-72 0 -109.5 -27t-37.5 -75q0 -49 40 -77.5t110 -28.5q42 0 75 12.5t71 44.5l22 -33q-42 -34 -81 -48t-92 -14zM218 567l48 190l51 -10l-66 -188z" />
    <glyph glyph-name="etatonos" unicode="&#x3ae;" horiz-adv-x="529" 
d="M400 -180q2 121 2.5 243t0.5 239q0 77 -21.5 113.5t-70.5 36.5q-24 0 -45 -6t-41 -21t-42 -40t-47 -63v-322h-44v358q0 29 -0.5 57t-4.5 65h43l4 -110h3q41 66 84 94t98 28q66 0 95.5 -45t29.5 -139v-488h-44zM260 567l48 190l51 -10l-66 -188z" />
    <glyph glyph-name="iotatonos" unicode="&#x3af;" horiz-adv-x="239" 
d="M157 -12q-65 0 -65 82v410h45q-3 -210 -3 -416q0 -19 8 -28t21 -9q11 0 29 6l7 -36q-8 -4 -18 -6.5t-24 -2.5zM94 567l48 190l51 -10l-66 -188z" />
    <glyph glyph-name="upsilondieresistonos" unicode="&#x3b0;" horiz-adv-x="497" 
d="M242 -12q-36 0 -67 10t-53.5 31.5t-35.5 56t-13 83.5q0 48 2 94.5t2 94.5q0 29 -1 57t-6 65h44q5 -26 5.5 -51.5t0.5 -56.5q0 -24 -1 -50.5t-2 -53.5t-2 -52.5t-1 -46.5q0 -40 10.5 -67.5t28.5 -44t41.5 -23.5t49.5 -7q30 0 56.5 12.5t46 38t31 64t11.5 91.5q0 60 -9 120
t-35 127l44 12q24 -66 35 -129.5t11 -129.5q0 -61 -15.5 -107t-41.5 -76.5t-61 -46t-75 -15.5zM200 568l49 190l46 -10l-66 -187zM131 602q-15 0 -24 9t-9 24t9 24t24 9q14 0 23.5 -9t9.5 -24t-9.5 -24t-23.5 -9zM335 602q-14 0 -23.5 9t-9.5 24t9.5 24t23.5 9q15 0 24 -9
t9 -24t-9 -24t-24 -9z" />
    <glyph glyph-name="alpha" unicode="&#x3b1;" horiz-adv-x="540" 
d="M232 -12q-40 0 -73 15t-57 45t-37 75t-13 105q0 63 17 112t46 83t67 51.5t79 17.5q24 0 48 -7.5t45 -24.5t38 -44.5t26 -67.5h3l23 132h44q-10 -51 -20.5 -106t-19 -108.5t-14 -101.5t-5.5 -84q0 -24 14 -38.5t34 -14.5q9 0 18 2.5t17 5.5l8 -36q-8 -4 -20 -7.5t-29 -3.5
q-38 0 -61.5 27t-15.5 81h-3q-59 -108 -159 -108zM238 27q28 0 55.5 14t49 38.5t35.5 56.5t17 68l8 94q-12 50 -28.5 80.5t-35.5 47t-39 22t-38 5.5q-32 0 -61.5 -15t-52 -43.5t-36.5 -70.5t-14 -96q0 -93 37 -147t103 -54z" />
    <glyph glyph-name="beta" unicode="&#x3b2;" horiz-adv-x="544" 
d="M89 -180v686q0 49 11 90t33.5 71t56.5 47t80 17q32 0 61.5 -10.5t52 -31.5t36 -52t13.5 -73q0 -57 -27.5 -101.5t-77.5 -75.5v-4q81 -9 124.5 -61t43.5 -133q0 -46 -15 -83t-40.5 -63.5t-59.5 -40.5t-71 -14q-49 0 -95.5 18t-84.5 60q2 -63 2.5 -122.5t0.5 -123.5h-44z
M305 27q30 0 56.5 11.5t46 33t31 51.5t11.5 68q0 69 -40 114.5t-122 45.5q-28 0 -56 -6l-9 38q44 10 75.5 29t51.5 44t29 52.5t9 53.5q0 33 -9.5 57.5t-25.5 41t-37 24.5t-45 8q-63 0 -100.5 -50t-38.5 -150v-381q39 -50 84 -67.5t89 -17.5z" />
    <glyph glyph-name="gamma" unicode="&#x3b3;" horiz-adv-x="455" 
d="M203 -180q1 17 1.5 30.5t1 26t0.5 25.5v30q0 68 -17.5 145.5t-45.5 151.5t-63 139.5t-70 109.5l43 14q27 -35 54.5 -85.5t51.5 -108.5t43 -120t28 -122h4q26 50 51.5 102.5t46.5 106t36 107.5t20 108h45q-9 -61 -24 -116.5t-38.5 -112.5t-55.5 -118t-75 -133
q5 -42 6.5 -90t1.5 -90h-45z" />
    <glyph glyph-name="delta" unicode="&#x3b4;" horiz-adv-x="522" 
d="M267 -12q-38 0 -75.5 15t-67 42.5t-47.5 68t-18 91.5q0 46 16 85t43.5 69.5t65.5 52t83 32.5q-30 21 -57.5 42t-49 43.5t-34 47t-12.5 52.5q0 20 8.5 38.5t26.5 32.5t45.5 22.5t66.5 8.5q42 0 89.5 -8.5t113.5 -30.5l-13 -40q-69 25 -113.5 33.5t-78.5 8.5
q-53 0 -76.5 -20t-23.5 -45q0 -23 12 -43.5t32 -40t47.5 -39.5t57.5 -42t59 -46t51.5 -53.5t36.5 -65.5t14 -82q0 -51 -13.5 -93.5t-39.5 -72.5t-63.5 -46.5t-85.5 -16.5zM267 27q41 0 70.5 14.5t49 40t28.5 59.5t9 74q0 35 -10 64t-26.5 53.5t-38.5 45.5t-47 40
q-94 -20 -146 -76t-52 -135q0 -41 13.5 -74t36.5 -56.5t52 -36.5t61 -13z" />
    <glyph glyph-name="epsilon" unicode="&#x3b5;" horiz-adv-x="435" 
d="M242 -12q-87 0 -138.5 39t-51.5 103q0 27 8.5 47.5t23 35.5t33 25t38.5 15v4q-38 14 -58 44t-20 67q0 31 13.5 54t37 38.5t54 23.5t65.5 8q44 0 80.5 -14.5t68.5 -39.5l-20 -32q-31 23 -62 35.5t-68 12.5q-25 0 -47.5 -5.5t-39 -16.5t-26.5 -28t-10 -40q0 -40 31.5 -67
t103.5 -27q14 0 25.5 0.5t30.5 2.5v-41q-21 2 -37 2h-33q-72 0 -109.5 -27t-37.5 -75q0 -49 40 -77.5t110 -28.5q42 0 75 12.5t71 44.5l22 -33q-42 -34 -81 -48t-92 -14z" />
    <glyph glyph-name="zeta" unicode="&#x3b6;" horiz-adv-x="399" 
d="M342 -183l-36 21q28 35 38.5 52t10.5 37q0 12 -4.5 21t-18 16t-37 13.5t-60.5 14.5q-38 7 -71.5 21.5t-58 40.5t-39 66t-14.5 99q0 42 13.5 87t36 89.5t51.5 87.5t61 80.5t64.5 68.5t60.5 52q-24 0 -57.5 -0.5t-69.5 -0.5t-70 -0.5t-59 -1.5v38h308v-38h-4
q-45 -35 -95.5 -89t-93.5 -117t-71 -129.5t-28 -125.5q0 -50 12.5 -84t34.5 -56t51.5 -33.5t63.5 -17.5q33 -6 58.5 -13.5t43 -18t26 -26t8.5 -37.5q0 -20 -13 -49.5t-42 -67.5z" />
    <glyph glyph-name="eta" unicode="&#x3b7;" horiz-adv-x="529" 
d="M400 -180q2 121 2.5 243t0.5 239q0 77 -21.5 113.5t-70.5 36.5q-24 0 -45 -6t-41 -21t-42 -40t-47 -63v-322h-44v358q0 29 -0.5 57t-4.5 65h43l4 -110h3q41 66 84 94t98 28q66 0 95.5 -45t29.5 -139v-488h-44z" />
    <glyph glyph-name="theta" unicode="&#x3b8;" horiz-adv-x="506" 
d="M253 -12q-44 0 -79 21.5t-59 67t-36.5 116.5t-12.5 170q0 177 49 272.5t138 95.5t138 -95.5t49 -272.5q0 -99 -12.5 -170t-36.5 -116.5t-59 -67t-79 -21.5zM253 692q-60 0 -99.5 -77t-42.5 -232h284q-3 155 -42.5 232t-99.5 77zM253 27q30 0 55.5 17.5t44.5 55.5t30 98.5
t12 147.5h-284q1 -87 12 -147.5t29.5 -98.5t44.5 -55.5t56 -17.5z" />
    <glyph glyph-name="iota" unicode="&#x3b9;" horiz-adv-x="239" 
d="M157 -12q-65 0 -65 82v410h45q-3 -210 -3 -416q0 -19 8 -28t21 -9q11 0 29 6l7 -36q-8 -4 -18 -6.5t-24 -2.5z" />
    <glyph glyph-name="kappa" unicode="&#x3ba;" horiz-adv-x="463" 
d="M418 -7q-23 25 -48 58.5t-49.5 70t-47 74t-40.5 71.5q-34 -45 -65 -95q-20 -29 -26.5 -68t-7.5 -81v-23h-42v358q0 29 -1 61t-7 61h44q5 -17 6.5 -47t1.5 -61v-187h4q30 54 66 104t75 91.5t79 70.5t76 41l5 -43q-42 -16 -87.5 -53.5t-93.5 -94.5q18 -36 41.5 -75.5
t50.5 -79.5t56 -77.5t58 -68.5z" />
    <glyph glyph-name="lambda" unicode="&#x3bb;" horiz-adv-x="461" 
d="M63 -7l-46 7l211 496l-8 25q-27 83 -55 127t-75 44q-19 0 -33 -5t-25 -11l-14 39q14 6 32 11t44 5q32 0 56.5 -14t44 -41t35.5 -66t33 -90l188 -520h-45l-156 443h-4z" />
    <glyph glyph-name="uni03BC" unicode="&#x3bc;" horiz-adv-x="543" 
d="M92 -180v660h44v-302q0 -72 24.5 -111t81.5 -39q19 0 37.5 3.5t37.5 15t39 33.5t41 59v341h44q-1 -106 -2 -209.5t-1 -206.5q0 -19 8.5 -28t21.5 -9q11 0 28 6l8 -36q-8 -4 -18 -6.5t-24 -2.5q-35 0 -49 23.5t-14 77.5h-3q-31 -52 -69 -76t-82 -24q-37 0 -65 11.5
t-48 48.5v-70.5t0.5 -54.5t1.5 -49.5t3 -54.5h-45z" />
    <glyph glyph-name="nu" unicode="&#x3bd;" horiz-adv-x="445" 
d="M200 0q-15 66 -34.5 131t-43.5 126.5t-52 117.5t-60 103l43 14q28 -42 54.5 -96.5t49.5 -114t41.5 -120t30.5 -115.5h4q24 49 48 103.5t43.5 110.5t34 111.5t19.5 108.5h45q-17 -124 -62 -240t-115 -240h-46z" />
    <glyph glyph-name="xi" unicode="&#x3be;" horiz-adv-x="408" 
d="M352 -183l-37 21q28 35 38.5 52t10.5 37q0 12 -5 21t-18.5 16.5t-37 14t-59.5 13.5q-39 7 -73.5 20t-60.5 35.5t-41.5 56t-15.5 82.5q0 38 12.5 71t34 59.5t50 44.5t60.5 26v4q-45 20 -76.5 57t-31.5 94q0 51 23.5 86.5t63.5 55.5q-23 0 -41 -0.5t-35 -0.5t-35.5 -0.5
t-42.5 -1.5v38h365v-38h-112q-26 0 -51.5 -9t-45 -27t-31.5 -44t-12 -59q0 -32 14 -58t35.5 -44.5t47 -28.5t49.5 -10q18 0 29.5 0.5t30.5 3.5v-43q-17 3 -31 3.5t-32 0.5q-35 0 -69 -11.5t-61.5 -34t-44.5 -55.5t-17 -76q0 -42 14 -70t38 -46t55 -28t65 -16t59 -13.5
t42 -18t25.5 -26t8.5 -37.5q0 -20 -12.5 -49.5t-41.5 -67.5z" />
    <glyph glyph-name="omicron" unicode="&#x3bf;" horiz-adv-x="524" 
d="M262 -12q-45 0 -83 16.5t-66.5 49t-44.5 79t-16 106.5q0 61 16 108t44.5 79.5t66.5 49t83 16.5t83 -16.5t66.5 -49t44.5 -79.5t16 -108q0 -60 -16 -106.5t-44.5 -79t-66.5 -49t-83 -16.5zM262 27q38 0 68.5 15t51.5 43t32.5 67t11.5 87t-11.5 87.5t-32.5 67.5t-51.5 43.5
t-68.5 15.5t-68.5 -15.5t-51.5 -43.5t-32.5 -67.5t-11.5 -87.5t11.5 -87t32.5 -67t51.5 -43t68.5 -15z" />
    <glyph glyph-name="pi" unicode="&#x3c0;" horiz-adv-x="557" 
d="M463 -12q-42 0 -61.5 22.5t-19.5 71.5q0 23 0.5 65t1.5 92t2 103t2 98h-207q0 -110 -9 -224t-20 -219l-46 3q15 105 24.5 218t9.5 222h-115v36l67 4h439v-40h-100q-2 -47 -3.5 -101t-2.5 -105t-1.5 -93t-0.5 -65q0 -49 46 -49q6 0 15.5 1.5t25.5 4.5l7 -36
q-11 -4 -24 -6.5t-30 -2.5z" />
    <glyph glyph-name="rho" unicode="&#x3c1;" horiz-adv-x="538" 
d="M88 -180v435q0 59 16 103.5t44 74t64 44.5t77 15q98 0 147.5 -66t49.5 -179q0 -61 -16.5 -109t-44.5 -81.5t-63.5 -51t-72.5 -17.5q-44 0 -82.5 16.5t-76.5 60.5q1 -35 1.5 -64.5t0.5 -58t0.5 -58t0.5 -64.5h-45zM286 27q32 0 60 16t49 45t33 69.5t12 89.5q0 44 -8.5 82
t-27 65.5t-47.5 43t-70 15.5q-30 0 -58.5 -12.5t-50 -38t-34.5 -64.5t-13 -93v-137q41 -51 79.5 -66t75.5 -15z" />
    <glyph glyph-name="uni03C2" unicode="&#x3c2;" horiz-adv-x="423" 
d="M297 -177l-37 20q29 35 42 57.5t13 45.5q0 24 -15.5 41t-64.5 31q-34 12 -66.5 28t-58.5 42.5t-42 66t-16 98.5q0 58 16 102.5t43.5 75t64 46t76.5 15.5q25 0 44.5 -5t36 -13.5t30 -19t25.5 -21.5l-26 -31q-23 22 -48.5 36.5t-60.5 14.5q-33 0 -61.5 -14.5t-49 -40.5
t-32.5 -63t-12 -82q0 -50 13.5 -83.5t36 -55.5t51.5 -35.5t59 -22.5q27 -8 46 -17t31 -21t17 -28t5 -38q0 -24 -15.5 -57.5t-44.5 -71.5z" />
    <glyph glyph-name="sigma" unicode="&#x3c3;" horiz-adv-x="530" 
d="M260 -12q-42 0 -79.5 16t-66 47.5t-45.5 77.5t-17 106q0 64 17.5 110t46.5 76t67 44.5t79 14.5h256v-41q-42 3 -80.5 5t-80.5 2v-4q50 -28 78 -81t28 -129q0 -59 -16 -104t-44 -76.5t-64.5 -47.5t-78.5 -16zM260 27q34 0 63 14.5t50 41.5t33 65.5t12 85.5
q0 40 -10.5 77.5t-30.5 66.5t-49 46t-66 17q-34 0 -64 -13t-52 -39t-35 -64.5t-13 -89.5q0 -47 12.5 -85.5t34.5 -65.5t51.5 -42t63.5 -15z" />
    <glyph glyph-name="tau" unicode="&#x3c4;" horiz-adv-x="441" 
d="M275 -12q-43 0 -60 22.5t-17 71.5v360h-172v34l67 4h322v-38h-173q-2 -94 -2 -184.5v-181.5q0 -49 41 -49q11 0 22.5 2.5t21.5 5.5l8 -36q-10 -4 -25.5 -7.5t-32.5 -3.5z" />
    <glyph glyph-name="upsilon" unicode="&#x3c5;" horiz-adv-x="497" 
d="M242 -12q-36 0 -67 10t-53.5 31.5t-35.5 56t-13 83.5q0 48 2 94.5t2 94.5q0 29 -1 57t-6 65h44q5 -26 5.5 -51.5t0.5 -56.5q0 -24 -1 -50.5t-2 -53.5t-2 -52.5t-1 -46.5q0 -40 10.5 -67.5t28.5 -44t41.5 -23.5t49.5 -7q30 0 56.5 12.5t46 38t31 64t11.5 91.5q0 60 -9 120
t-35 127l44 12q24 -66 35 -129.5t11 -129.5q0 -61 -15.5 -107t-41.5 -76.5t-61 -46t-75 -15.5z" />
    <glyph glyph-name="phi" unicode="&#x3c6;" horiz-adv-x="647" 
d="M98 241q0 -48 16.5 -87.5t44.5 -67t65 -43.5t78 -17v428q-41 -1 -78 -16.5t-65 -43t-44.5 -66.5t-16.5 -87zM548 241q0 48 -15.5 87t-42.5 66.5t-64.5 43t-80.5 16.5v-428q41 1 78 17t64.5 43.5t44 67t16.5 87.5zM302 -180v170q-48 1 -93 18t-80 49t-56 78.5t-21 105.5
t21 105t56 77.5t80 48.5t93 18v129h43v-129q50 -1 95 -18t79.5 -48.5t55 -77.5t20.5 -105t-21 -105.5t-56 -78.5t-80 -49t-93 -18v-170h-43z" />
    <glyph glyph-name="chi" unicode="&#x3c7;" horiz-adv-x="454" 
d="M53 -192l-43 12l195 342l-190 316l44 14l167 -288h4l146 276h48l-173 -317l206 -340l-42 -15l-185 316h-4z" />
    <glyph glyph-name="psi" unicode="&#x3c8;" horiz-adv-x="652" 
d="M303 -180v168q-112 1 -170 60.5t-58 165.5v144q0 29 -0.5 57t-4.5 65h44q3 -26 4 -51.5t1 -56.5q0 -23 -0.5 -46.5t-0.5 -45t-0.5 -39t-0.5 -27.5q0 -90 47.5 -138.5t138.5 -48.5v592h42v-592q95 3 147 60.5t52 169.5q0 30 -2 56t-7 52.5t-13.5 54t-21.5 60.5l43 12
q12 -32 21 -60.5t15 -56.5t8.5 -56.5t2.5 -61.5q0 -127 -65.5 -196t-179.5 -73v-168h-42z" />
    <glyph glyph-name="omega" unicode="&#x3c9;" horiz-adv-x="674" 
d="M211 -12q-31 0 -59 14t-49 42t-33 70.5t-12 100.5q0 43 7.5 81t20.5 71.5t30.5 64.5t38.5 60l38 -22q-22 -30 -39 -58.5t-29 -59.5t-18 -66t-6 -78q0 -45 9 -78.5t24.5 -56.5t36 -34.5t43.5 -11.5q19 0 37 6.5t32 22.5t23 42.5t9 66.5q0 28 -1 60.5t-4 69.5h52
q-3 -37 -4 -69.5t-1 -60.5q0 -40 9 -66.5t23.5 -42.5t33 -22.5t36.5 -6.5q48 0 79.5 45t31.5 144q0 41 -5.5 74.5t-16 63.5t-26.5 58t-38 60l39 20q21 -30 38 -60t29.5 -63t19 -70t6.5 -82q0 -59 -11.5 -102.5t-31.5 -71.5t-48.5 -41.5t-61.5 -13.5q-39 0 -73 21t-51 64h-4
q-17 -43 -50.5 -64t-73.5 -21z" />
    <glyph glyph-name="iotadieresis" unicode="&#x3ca;" horiz-adv-x="239" 
d="M157 -12q-65 0 -65 82v410h45q-3 -210 -3 -416q0 -19 8 -28t21 -9q11 0 29 6l7 -36q-8 -4 -18 -6.5t-24 -2.5zM26 598q-16 0 -26.5 10.5t-10.5 26.5t10.5 26.5t26.5 10.5t26.5 -10.5t10.5 -26.5t-10.5 -26.5t-26.5 -10.5zM204 598q-16 0 -26.5 10.5t-10.5 26.5t10.5 26.5
t26.5 10.5t26.5 -10.5t10.5 -26.5t-10.5 -26.5t-26.5 -10.5z" />
    <glyph glyph-name="upsilondieresis" unicode="&#x3cb;" horiz-adv-x="497" 
d="M242 -12q-36 0 -67 10t-53.5 31.5t-35.5 56t-13 83.5q0 48 2 94.5t2 94.5q0 29 -1 57t-6 65h44q5 -26 5.5 -51.5t0.5 -56.5q0 -24 -1 -50.5t-2 -53.5t-2 -52.5t-1 -46.5q0 -40 10.5 -67.5t28.5 -44t41.5 -23.5t49.5 -7q30 0 56.5 12.5t46 38t31 64t11.5 91.5q0 60 -9 120
t-35 127l44 12q24 -66 35 -129.5t11 -129.5q0 -61 -15.5 -107t-41.5 -76.5t-61 -46t-75 -15.5zM144 598q-16 0 -26.5 10.5t-10.5 26.5t10.5 26.5t26.5 10.5t26.5 -10.5t10.5 -26.5t-10.5 -26.5t-26.5 -10.5zM322 598q-16 0 -26.5 10.5t-10.5 26.5t10.5 26.5t26.5 10.5
t26.5 -10.5t10.5 -26.5t-10.5 -26.5t-26.5 -10.5z" />
    <glyph glyph-name="omicrontonos" unicode="&#x3cc;" horiz-adv-x="524" 
d="M262 -12q-45 0 -83 16.5t-66.5 49t-44.5 79t-16 106.5q0 61 16 108t44.5 79.5t66.5 49t83 16.5t83 -16.5t66.5 -49t44.5 -79.5t16 -108q0 -60 -16 -106.5t-44.5 -79t-66.5 -49t-83 -16.5zM262 27q38 0 68.5 15t51.5 43t32.5 67t11.5 87t-11.5 87.5t-32.5 67.5t-51.5 43.5
t-68.5 15.5t-68.5 -15.5t-51.5 -43.5t-32.5 -67.5t-11.5 -87.5t11.5 -87t32.5 -67t51.5 -43t68.5 -15zM241 567l48 190l51 -10l-66 -188z" />
    <glyph glyph-name="upsilontonos" unicode="&#x3cd;" horiz-adv-x="497" 
d="M242 -12q-36 0 -67 10t-53.5 31.5t-35.5 56t-13 83.5q0 48 2 94.5t2 94.5q0 29 -1 57t-6 65h44q5 -26 5.5 -51.5t0.5 -56.5q0 -24 -1 -50.5t-2 -53.5t-2 -52.5t-1 -46.5q0 -40 10.5 -67.5t28.5 -44t41.5 -23.5t49.5 -7q30 0 56.5 12.5t46 38t31 64t11.5 91.5q0 60 -9 120
t-35 127l44 12q24 -66 35 -129.5t11 -129.5q0 -61 -15.5 -107t-41.5 -76.5t-61 -46t-75 -15.5zM212 567l48 190l51 -10l-66 -188z" />
    <glyph glyph-name="omegatonos" unicode="&#x3ce;" horiz-adv-x="674" 
d="M211 -12q-31 0 -59 14t-49 42t-33 70.5t-12 100.5q0 43 7.5 81t20.5 71.5t30.5 64.5t38.5 60l38 -22q-22 -30 -39 -58.5t-29 -59.5t-18 -66t-6 -78q0 -45 9 -78.5t24.5 -56.5t36 -34.5t43.5 -11.5q19 0 37 6.5t32 22.5t23 42.5t9 66.5q0 28 -1 60.5t-4 69.5h52
q-3 -37 -4 -69.5t-1 -60.5q0 -40 9 -66.5t23.5 -42.5t33 -22.5t36.5 -6.5q48 0 79.5 45t31.5 144q0 41 -5.5 74.5t-16 63.5t-26.5 58t-38 60l39 20q21 -30 38 -60t29.5 -63t19 -70t6.5 -82q0 -59 -11.5 -102.5t-31.5 -71.5t-48.5 -41.5t-61.5 -13.5q-39 0 -73 21t-51 64h-4
q-17 -43 -50.5 -64t-73.5 -21zM316 567l48 190l51 -10l-66 -188z" />
    <glyph glyph-name="uni03D0" unicode="&#x3d0;" horiz-adv-x="541" 
d="M297 -12q-34 0 -71 11.5t-68 38t-51 70t-20 108.5v290q0 49 11 90t33.5 70.5t56 46t79.5 16.5q31 0 60 -10t51.5 -30.5t36 -51.5t13.5 -73q0 -57 -29.5 -102.5t-87.5 -74.5v-4q44 -3 78 -19t57 -42t35 -61t12 -77q0 -44 -15 -80t-41.5 -61.5t-62 -40t-77.5 -14.5z
M130 493v-131q135 23 194 75.5t59 124.5q0 33 -9 56.5t-24.5 39.5t-36 23.5t-44.5 7.5q-63 0 -100.5 -48t-38.5 -148zM296 28q34 0 61.5 11.5t47.5 32t31 49.5t11 64q0 33 -9.5 63.5t-29.5 53.5t-50.5 36.5t-73.5 13.5q-14 0 -51 -5t-103 -22v-97q0 -62 18 -101t44 -61
t54.5 -30t49.5 -8z" />
    <glyph glyph-name="uni03D1" unicode="&#x3d1;" horiz-adv-x="506" 
d="M122 557q0 -37 12.5 -72t43 -60.5t83.5 -36.5t134 1q-2 81 -13.5 139t-32 94.5t-50 53t-66.5 16.5q-47 0 -79 -35t-32 -100zM249 -12q-33 0 -61 10t-48.5 31t-32.5 55t-12 82v42.5t-0.5 33t-2 27.5t-3.5 27h41q6 -20 6.5 -48.5t0.5 -77.5q0 -41 9.5 -68.5t25.5 -44
t36.5 -23.5t43.5 -7q30 0 55.5 14.5t45 51.5t30.5 100t12 160q-90 -13 -151.5 1.5t-98.5 45.5t-53 72.5t-16 83.5q0 41 12.5 73.5t33.5 55t49.5 34.5t60.5 12q208 0 208 -365q0 -111 -15 -184t-40.5 -116t-60.5 -60.5t-75 -17.5z" />
    <glyph glyph-name="uni03D5" unicode="&#x3d5;" horiz-adv-x="647" 
d="M302 -180v170q-48 1 -93 16t-80 45t-56 75t-21 107q0 41 8.5 76.5t23 67.5t34.5 60.5t43 55.5l36 -26q-24 -27 -43 -53t-31.5 -54t-19.5 -60.5t-7 -71.5q0 -49 17 -86t45.5 -62.5t65.5 -39t78 -14.5v293q0 86 34.5 129.5t88.5 43.5q37 0 68.5 -17t54 -49t35 -77
t12.5 -101q0 -60 -20.5 -107.5t-55.5 -80.5t-80.5 -51t-94.5 -19q0 -43 0.5 -85t1.5 -85h-44zM343 310v-141.5t1 -142.5q43 1 80 17.5t64.5 45.5t43.5 69.5t16 88.5q0 45 -9.5 82.5t-26.5 65t-40 43t-49 15.5q-33 0 -56.5 -35t-23.5 -108z" />
    <glyph glyph-name="uni03D7" unicode="&#x3d7;" horiz-adv-x="463" 
d="M327 -186l-51 6q41 42 76 86.5t64 88.5q-23 25 -47.5 58.5t-48.5 69.5t-46.5 73t-40.5 71q-34 -45 -65 -95q-20 -29 -26.5 -68t-7.5 -81v-23h-42v358q0 29 -1 61t-7 61h44q5 -17 6.5 -47t1.5 -61v-187h4q30 54 66 104t75 91.5t79 70.5t76 41l5 -43q-42 -16 -87.5 -53.5
t-93.5 -94.5q18 -36 41.5 -75.5t50.5 -79.5t56 -77.5t58 -68.5q-33 -53 -69.5 -100.5t-69.5 -85.5z" />
    <glyph glyph-name="uni03D9" unicode="&#x3d9;" horiz-adv-x="524" 
d="M262 26q76 0 120 58t44 155q0 48 -11.5 87.5t-32.5 67.5t-51.5 43.5t-68.5 15.5t-68.5 -15.5t-51.5 -43.5t-32.5 -67.5t-11.5 -87.5q0 -97 44 -155t120 -58zM243 -180v169q-41 3 -76 21.5t-60.5 50.5t-40 76.5t-14.5 101.5q0 61 16 108t44.5 79.5t66.5 49t83 16.5
t83 -16.5t66.5 -49t44.5 -79.5t16 -108q0 -56 -14 -100.5t-39 -76t-59 -50.5t-74 -23q0 -24 0.5 -43t0.5 -37t0.5 -39t0.5 -50h-45z" />
    <glyph glyph-name="uni03DB" unicode="&#x3db;" horiz-adv-x="451" 
d="M333 -183l-37 21q29 35 39.5 52t10.5 37q0 11 -3.5 20.5t-14 18.5t-30.5 17t-52 16q-41 10 -76 27t-61.5 44.5t-41.5 68t-15 96.5q0 64 17.5 110t49 76t73.5 44.5t92 14.5h141v-41q-26 2 -60.5 2h-79.5q-86 0 -136.5 -51.5t-50.5 -154.5q0 -48 13.5 -82t37 -57.5
t55 -37.5t66.5 -22q64 -14 91 -37.5t27 -64.5q0 -20 -14.5 -51t-40.5 -66z" />
    <glyph glyph-name="uni03DD" unicode="&#x3dd;" horiz-adv-x="402" 
d="M92 -180v660h284v-38h-243l2 -252h221v-36h-220v-164t1 -170h-45z" />
    <glyph glyph-name="uni03E1" unicode="&#x3e1;" horiz-adv-x="476" 
d="M429 -178l-43 6q11 48 14.5 94t3.5 93q0 41 -4 81t-12 79q-69 -32 -134 -61.5t-140 -65.5l-19 37l284 130q-18 68 -48 133q-74 -34 -142.5 -65.5t-147.5 -68.5l-19 36l292 133q-45 85 -110.5 153.5t-150.5 113.5l26 34q87 -49 155.5 -121t115.5 -159.5t71.5 -186.5
t24.5 -202q0 -51 -3.5 -98t-13.5 -95z" />
    <glyph glyph-name="uni0400" unicode="&#x400;" horiz-adv-x="515" 
d="M97 0v659h361v-40h-315v-249h264v-40h-264v-290h325v-40h-371zM303 706l-133 113l28 33l125 -123z" />
    <glyph glyph-name="uni0401" unicode="&#x401;" horiz-adv-x="515" 
d="M97 0v659h361v-40h-315v-249h264v-40h-264v-290h325v-40h-371zM184 725q-16 0 -26 9.5t-10 26.5t10 27t26 10t26.5 -10t10.5 -27t-10.5 -26.5t-26.5 -9.5zM380 725q-16 0 -26.5 9.5t-10.5 26.5t10.5 27t26.5 10t26 -10t10 -27t-10 -26.5t-26 -9.5z" />
    <glyph glyph-name="uni0402" unicode="&#x402;" horiz-adv-x="679" 
d="M449 -12q-16 0 -33.5 3.5t-27.5 6.5l10 40q7 -3 21.5 -6t25.5 -3q22 0 45 8t42 27t31.5 50t12.5 78q0 87 -49.5 126t-139.5 39q-32 0 -65 -3.5t-57 -8.5v-345h-46v619h-190v40h479v-40h-243v-233q26 5 59 8t67 3q52 0 95 -12t73.5 -36.5t47 -63.5t16.5 -93
q0 -58 -15.5 -97t-40.5 -63t-56 -34t-62 -10z" />
    <glyph glyph-name="uni0403" unicode="&#x403;" horiz-adv-x="485" 
d="M97 0v659h359v-40h-313v-619h-46zM266 706l-20 23l125 123l28 -33z" />
    <glyph glyph-name="uni0404" unicode="&#x404;" horiz-adv-x="564" 
d="M331 -12q-63 0 -114 23t-87 67t-55.5 107.5t-19.5 145.5t20 145t56.5 106.5t88 66t115.5 22.5q58 0 102.5 -24t70.5 -55l-27 -31q-27 31 -64 49.5t-82 18.5q-104 0 -164.5 -68t-68.5 -191h302v-40h-303q2 -148 62.5 -224t169.5 -76q51 0 91 20.5t76 60.5l27 -29
q-38 -44 -85 -69t-111 -25z" />
    <glyph glyph-name="uni0405" unicode="&#x405;" horiz-adv-x="521" 
d="M269 -12q-72 0 -128 27.5t-95 71.5l30 32q36 -41 86 -65t107 -24q76 0 120 36.5t44 95.5q0 31 -9.5 52.5t-25.5 37t-37.5 26.5t-45.5 22l-100 45q-21 9 -45 22t-43.5 32.5t-32.5 46t-13 63.5q0 36 14.5 65.5t40 51t61 33.5t76.5 12q60 0 106.5 -23.5t76.5 -55.5l-26 -30
q-29 30 -68 48.5t-89 18.5q-66 0 -106 -32t-40 -86q0 -29 11 -49t28 -34.5t37 -25t38 -18.5l100 -44q28 -12 53 -27t44 -35t30.5 -47.5t11.5 -65.5t-15 -70.5t-42.5 -56t-66.5 -37t-87 -13.5z" />
    <glyph glyph-name="uni0406" unicode="&#x406;" horiz-adv-x="240" 
d="M97 0v659h46v-659h-46z" />
    <glyph glyph-name="uni0407" unicode="&#x407;" horiz-adv-x="240" 
d="M97 0v659h46v-659h-46zM22 725q-16 0 -26 9.5t-10 26.5t10 27t26 10t26.5 -10t10.5 -27t-10.5 -26.5t-26.5 -9.5zM218 725q-16 0 -26.5 9.5t-10.5 26.5t10.5 27t26.5 10t26 -10t10 -27t-10 -26.5t-26 -9.5z" />
    <glyph glyph-name="uni0408" unicode="&#x408;" horiz-adv-x="462" 
d="M203 -12q-55 0 -96 25t-66 72l35 23q24 -42 54.5 -60t72.5 -18q60 0 89 36.5t29 117.5v475h46v-480q0 -40 -9 -74.5t-28.5 -60.5t-50.5 -41t-76 -15z" />
    <glyph glyph-name="uni0409" unicode="&#x409;" horiz-adv-x="894" 
d="M52 -12q-22 0 -45 8l12 44l14 -3.5t14 -1.5q13 0 25.5 6t23.5 26t22.5 56.5t23.5 98.5q21 109 40 214.5t39 222.5h277v-287h112q54 0 97 -10t74 -32t47.5 -55.5t16.5 -79.5q0 -98 -60 -146.5t-171 -48.5h-162v619h-194q-19 -103 -35.5 -203t-35.5 -201
q-13 -71 -27 -115.5t-30 -69.5t-35 -33.5t-43 -8.5zM498 39h104q99 0 148.5 36.5t49.5 117.5q0 74 -51 107t-151 33h-100v-294z" />
    <glyph glyph-name="uni040A" unicode="&#x40a;" horiz-adv-x="927" 
d="M97 0v659h46v-289h343v289h46v-287h112q53 0 96.5 -10t74 -32t47 -55.5t16.5 -79.5q0 -98 -60 -146.5t-171 -48.5h-161v330h-343v-330h-46zM532 39h103q99 0 148.5 36.5t49.5 117.5q0 74 -50.5 107t-150.5 33h-100v-294z" />
    <glyph glyph-name="uni040B" unicode="&#x40b;" horiz-adv-x="683" 
d="M219 0v619h-190v40h479v-40h-243v-233q26 5 59.5 8t65.5 3q106 0 164 -46t58 -151v-200h-45v200q0 86 -45.5 121.5t-135.5 35.5q-31 0 -64 -3.5t-57 -8.5v-345h-46z" />
    <glyph glyph-name="uni040C" unicode="&#x40c;" horiz-adv-x="555" 
d="M97 0v659h46v-289h138l96 176q21 40 37.5 64.5t31.5 38t30 18t34 4.5q14 0 26 -5l-8 -46q-5 2 -10.5 3t-10.5 1q-11 0 -20 -3t-19.5 -13t-23.5 -29t-31 -51l-95 -176l232 -352h-52l-219 331h-136v-331h-46zM291 707l-20 23l125 123l28 -33z" />
    <glyph glyph-name="uni040D" unicode="&#x40d;" horiz-adv-x="644" 
d="M97 0v659h46v-404q0 -48 -2 -96l-4 -96h4l75 130l282 466h49v-659h-46v409q0 48 2 93.5t4 93.5h-4l-74 -129l-283 -467h-49zM347 707l-133 113l28 33l125 -123z" />
    <glyph glyph-name="uni040E" unicode="&#x40e;" horiz-adv-x="491" 
d="M123 -12q-18 0 -29.5 2t-24.5 7l12 43q15 -6 37 -6q38 0 60 16t38 51l17 43l-226 515h49l150 -352l47 -113h4l43 113l138 352h48l-223 -557q-21 -54 -53.5 -84t-86.5 -30zM239 710q-38 0 -63.5 11.5t-41 30t-22.5 41t-9 45.5h42q1 -19 6 -37t16 -31.5t28.5 -21.5t43.5 -8
q25 0 43 8t29 21.5t16 31.5t6 37h42q-2 -23 -9 -45.5t-22.5 -41t-41 -30t-63.5 -11.5z" />
    <glyph glyph-name="uni040F" unicode="&#x40f;" horiz-adv-x="634" 
d="M97 0v659h46v-619h348v619h46v-659h-194l-6 -188h-39v188h-201z" />
    <glyph glyph-name="uni0410" unicode="&#x410;" horiz-adv-x="526" 
d="M188 388l-42 -123h234l-42 123q-20 59 -38 113t-35 115h-4q-17 -61 -35 -115t-38 -113zM8 0l232 659h46l232 -659h-48l-77 226h-261l-78 -226h-46z" />
    <glyph glyph-name="uni0411" unicode="&#x411;" horiz-adv-x="568" 
d="M97 0v659h383v-40h-337v-249h146q53 0 96.5 -10t74 -31.5t47.5 -55t17 -79.5q0 -97 -59.5 -145.5t-171.5 -48.5h-196zM143 38h138q99 0 148 37t49 117q0 75 -50.5 107.5t-150.5 32.5h-134v-294z" />
    <glyph glyph-name="uni0412" unicode="&#x412;" horiz-adv-x="578" 
d="M97 0v659h178q100 0 159 -38.5t59 -121.5q0 -52 -26 -90.5t-76 -53.5v-4q64 -11 103 -50.5t39 -108.5q0 -48 -17.5 -84t-49.5 -60t-77 -36t-101 -12h-191zM143 369h114q101 0 145.5 33.5t44.5 91.5q0 70 -47 98.5t-138 28.5h-119v-252zM143 38h133q99 0 155.5 37
t56.5 116q0 72 -55 106t-157 34h-133v-293z" />
    <glyph glyph-name="uni0413" unicode="&#x413;" horiz-adv-x="485" 
d="M97 0v659h359v-40h-313v-619h-46z" />
    <glyph glyph-name="uni0414" unicode="&#x414;" horiz-adv-x="619" 
d="M79 0v-188h-39l-7 202v26h30q10 4 21 16.5t22 39.5t23 72t25 113q9 52 17 97t15 88.5t14 90t16 102.5h300v-619h70v-26l-7 -202h-39v188h-461zM196 272q-9 -52 -18.5 -90t-19 -66t-19 -46t-18.5 -30h349v579h-217q-9 -49 -15.5 -91t-12.5 -83t-13 -83t-16 -90z" />
    <glyph glyph-name="uni0415" unicode="&#x415;" horiz-adv-x="515" 
d="M97 0v659h361v-40h-315v-249h264v-40h-264v-290h325v-40h-371z" />
    <glyph glyph-name="uni0416" unicode="&#x416;" horiz-adv-x="768" 
d="M9 0l207 354l-78 174q-15 33 -27.5 52t-24 28.5t-21.5 12.5t-21 3q-5 0 -10.5 -1t-10.5 -3l-8 46q12 5 26 5q19 0 35 -4.5t32 -18t32 -38t34 -64.5l81 -176h107v289h44v-289h107l80 176q19 40 35 64.5t32 38t32 18t35 4.5q14 0 26 -5l-9 -46q-5 2 -10.5 3t-10.5 1
q-11 0 -21 -3t-21 -12.5t-23.5 -28.5t-27.5 -52l-78 -174l207 -354h-53l-189 331h-111v-331h-44v331h-111l-189 -331h-53z" />
    </font>
</defs>
</svg>
